  0
SECTION
  2
HEADER
  9
$ACADVER
  1
AC1024
  9
$ACADMAINTVER
 70
     6
  9
$DWGCODEPAGE
  3
ANSI_1252
  9
$INSBASE
 10
0.0
 20
0.0
 30
0.0
  9
$EXTMIN
 10
-28.97032373930529
 20
-3.585529189505127
 30
0.0
  9
$EXTMAX
 10
13.02967626069471
 20
26.42094928253197
 30
0.0
  9
$LIMMIN
 10
-51.80890296874264
 20
-8.23990317625226
  9
$LIMMAX
 10
13.37045033042254
 20
32.18458400854009
  9
$ORTHOMODE
 70
     0
  9
$REGENMODE
 70
     1
  9
$FILLMODE
 70
     1
  9
$QTEXTMODE
 70
     0
  9
$MIRRTEXT
 70
     0
  9
$LTSCALE
 40
1.0
  9
$ATTMODE
 70
     1
  9
$TEXTSIZE
 40
0.25
  9
$TRACEWID
 40
1.0
  9
$TEXTSTYLE
  7
Standard
  9
$CLAYER
  8
0
  9
$CELTYPE
  6
ByLayer
  9
$CECOLOR
 62
     7
  9
$CELTSCALE
 40
1.0
  9
$DISPSILH
 70
     0
  9
$DIMSCALE
 40
1.0
  9
$DIMASZ
 40
0.114
  9
$DIMEXO
 40
0.0625
  9
$DIMDLI
 40
0.38
  9
$DIMRND
 40
0.0
  9
$DIMDLE
 40
0.0
  9
$DIMEXE
 40
0.18
  9
$DIMTP
 40
0.0
  9
$DIMTM
 40
0.0
  9
$DIMTXT
 40
0.18
  9
$DIMCEN
 40
0.09
  9
$DIMTSZ
 40
0.0
  9
$DIMTOL
 70
     0
  9
$DIMLIM
 70
     0
  9
$DIMTIH
 70
     1
  9
$DIMTOH
 70
     1
  9
$DIMSE1
 70
     0
  9
$DIMSE2
 70
     0
  9
$DIMTAD
 70
     0
  9
$DIMZIN
 70
     0
  9
$DIMBLK
  1

  9
$DIMASO
 70
     1
  9
$DIMSHO
 70
     1
  9
$DIMPOST
  1

  9
$DIMAPOST
  1
^B2147483648l^B^B2147483648l^B
  9
$DIMALT
 70
     0
  9
$DIMALTD
 70
     2
  9
$DIMALTF
 40
25.4
  9
$DIMLFAC
 40
1.0
  9
$DIMTOFL
 70
     1
  9
$DIMTVP
 40
0.0
  9
$DIMTIX
 70
     0
  9
$DIMSOXD
 70
     0
  9
$DIMSAH
 70
     0
  9
$DIMBLK1
  1

  9
$DIMBLK2
  1

  9
$DIMSTYLE
  2
Standard
  9
$DIMCLRD
 70
     0
  9
$DIMCLRE
 70
     0
  9
$DIMCLRT
 70
     0
  9
$DIMTFAC
 40
1.0
  9
$DIMGAP
 40
0.09
  9
$DIMJUST
 70
     0
  9
$DIMSD1
 70
     0
  9
$DIMSD2
 70
     0
  9
$DIMTOLJ
 70
     1
  9
$DIMTZIN
 70
     0
  9
$DIMALTZ
 70
     0
  9
$DIMALTTZ
 70
     0
  9
$DIMUPT
 70
     0
  9
$DIMDEC
 70
     4
  9
$DIMTDEC
 70
     4
  9
$DIMALTU
 70
     2
  9
$DIMALTTD
 70
     2
  9
$DIMTXSTY
  7
Standard
  9
$DIMAUNIT
 70
     0
  9
$DIMADEC
 70
     0
  9
$DIMALTRND
 40
0.0
  9
$DIMAZIN
 70
     0
  9
$DIMDSEP
 70
    46
  9
$DIMATFIT
 70
     3
  9
$DIMFRAC
 70
     0
  9
$DIMLDRBLK
  1
ARROWHEAD_10
  9
$DIMLUNIT
 70
     2
  9
$DIMLWD
 70
    -2
  9
$DIMLWE
 70
    -2
  9
$DIMTMOVE
 70
     0
  9
$DIMFXL
 40
1.0
  9
$DIMFXLON
 70
     0
  9
$DIMJOGANG
 40
0.7853981633974483
  9
$DIMTFILL
 70
     0
  9
$DIMTFILLCLR
 70
     0
  9
$DIMARCSYM
 70
     0
  9
$DIMLTYPE
  6
ByBlock
  9
$DIMLTEX1
  6
ByBlock
  9
$DIMLTEX2
  6
ByBlock
  9
$DIMTXTDIRECTION
 70
     0
  9
$LUNITS
 70
     2
  9
$LUPREC
 70
     2
  9
$SKETCHINC
 40
1.0
  9
$FILLETRAD
 40
1.0
  9
$AUNITS
 70
     0
  9
$AUPREC
 70
     2
  9
$MENU
  1
.
  9
$ELEVATION
 40
0.0
  9
$PELEVATION
 40
0.0
  9
$THICKNESS
 40
0.0
  9
$LIMCHECK
 70
     0
  9
$CHAMFERA
 40
0.5
  9
$CHAMFERB
 40
0.5
  9
$CHAMFERC
 40
1.0
  9
$CHAMFERD
 40
0.0
  9
$SKPOLY
 70
     0
  9
$TDCREATE
 40
2459632.596060533
  9
$TDUCREATE
 40
2459632.554393866
  9
$TDUPDATE
 40
2459632.596062292
  9
$TDUUPDATE
 40
2459632.554395625
  9
$TDINDWG
 40
0.0
  9
$TDUSRTIMER
 40
0.0
  9
$USRTIMER
 70
     1
  9
$ANGBASE
 50
0.0
  9
$ANGDIR
 70
     0
  9
$PDMODE
 70
     0
  9
$PDSIZE
 40
0.0
  9
$PLINEWID
 40
0.0
  9
$SPLFRAME
 70
     0
  9
$SPLINETYPE
 70
     5
  9
$SPLINESEGS
 70
    20
  9
$HANDSEED
  5
4A1
  9
$SURFTAB1
 70
     6
  9
$SURFTAB2
 70
     6
  9
$SURFTYPE
 70
     6
  9
$SURFU
 70
     6
  9
$SURFV
 70
     6
  9
$UCSBASE
  2

  9
$UCSNAME
  2

  9
$UCSORG
 10
0.0
 20
0.0
 30
0.0
  9
$UCSXDIR
 10
1.0
 20
0.0
 30
0.0
  9
$UCSYDIR
 10
0.0
 20
1.0
 30
0.0
  9
$UCSORTHOREF
  2

  9
$UCSORTHOVIEW
 70
     0
  9
$UCSORGTOP
 10
0.0
 20
0.0
 30
0.0
  9
$UCSORGBOTTOM
 10
0.0
 20
0.0
 30
0.0
  9
$UCSORGLEFT
 10
0.0
 20
0.0
 30
0.0
  9
$UCSORGRIGHT
 10
0.0
 20
0.0
 30
0.0
  9
$UCSORGFRONT
 10
0.0
 20
0.0
 30
0.0
  9
$UCSORGBACK
 10
0.0
 20
0.0
 30
0.0
  9
$PUCSBASE
  2

  9
$PUCSNAME
  2

  9
$PUCSORG
 10
0.0
 20
0.0
 30
0.0
  9
$PUCSXDIR
 10
1.0
 20
0.0
 30
0.0
  9
$PUCSYDIR
 10
0.0
 20
1.0
 30
0.0
  9
$PUCSORTHOREF
  2

  9
$PUCSORTHOVIEW
 70
     0
  9
$PUCSORGTOP
 10
0.0
 20
0.0
 30
0.0
  9
$PUCSORGBOTTOM
 10
0.0
 20
0.0
 30
0.0
  9
$PUCSORGLEFT
 10
0.0
 20
0.0
 30
0.0
  9
$PUCSORGRIGHT
 10
0.0
 20
0.0
 30
0.0
  9
$PUCSORGFRONT
 10
0.0
 20
0.0
 30
0.0
  9
$PUCSORGBACK
 10
0.0
 20
0.0
 30
0.0
  9
$USERI1
 70
     0
  9
$USERI2
 70
     0
  9
$USERI3
 70
     0
  9
$USERI4
 70
     0
  9
$USERI5
 70
     0
  9
$USERR1
 40
0.0
  9
$USERR2
 40
0.0
  9
$USERR3
 40
0.0
  9
$USERR4
 40
0.0
  9
$USERR5
 40
0.0
  9
$WORLDVIEW
 70
     1
  9
$SHADEDGE
 70
     3
  9
$SHADEDIF
 70
    70
  9
$TILEMODE
 70
     1
  9
$MAXACTVP
 70
    64
  9
$PINSBASE
 10
0.0
 20
0.0
 30
0.0
  9
$PLIMCHECK
 70
     0
  9
$PEXTMIN
 10
0.0
 20
0.0
 30
0.0
  9
$PEXTMAX
 10
0.0
 20
0.0
 30
0.0
  9
$PLIMMIN
 10
0.0
 20
0.0
  9
$PLIMMAX
 10
0.0
 20
0.0
  9
$UNITMODE
 70
     0
  9
$VISRETAIN
 70
     1
  9
$PLINEGEN
 70
     0
  9
$PSLTSCALE
 70
     1
  9
$TREEDEPTH
 70
  3020
  9
$CMLSTYLE
  2
Standard
  9
$CMLJUST
 70
     0
  9
$CMLSCALE
 40
1.0
  9
$PROXYGRAPHICS
 70
     1
  9
$MEASUREMENT
 70
     0
  9
$CELWEIGHT
370
    -1
  9
$ENDCAPS
280
     0
  9
$JOINSTYLE
280
     0
  9
$LWDISPLAY
290
     0
  9
$INSUNITS
 70
     1
  9
$HYPERLINKBASE
  1

  9
$STYLESHEET
  1

  9
$XEDIT
290
     1
  9
$CEPSNTYPE
380
     0
  9
$PSTYLEMODE
290
     1
  9
$FINGERPRINTGUID
  2
{9AAEEB2B-92AA-4699-BB6F-1DDA5DD97A09}
  9
$VERSIONGUID
  2
{FAEB1C32-E019-11D5-929B-00C0DF256EC4}
  9
$EXTNAMES
290
     1
  9
$PSVPSCALE
 40
0.0
  9
$OLESTARTUP
290
     0
  9
$SORTENTS
280
   127
  9
$INDEXCTL
280
     0
  9
$HIDETEXT
280
     1
  9
$XCLIPFRAME
280
     2
  9
$HALOGAP
280
     0
  9
$OBSCOLOR
 70
   257
  9
$OBSLTYPE
280
     0
  9
$INTERSECTIONDISPLAY
280
     0
  9
$INTERSECTIONCOLOR
 70
   257
  9
$DIMASSOC
280
     2
  9
$PROJECTNAME
  1

  9
$CAMERADISPLAY
290
     0
  9
$LENSLENGTH
 40
50.0
  9
$CAMERAHEIGHT
 40
0.0
  9
$STEPSPERSEC
 40
2.0
  9
$STEPSIZE
 40
6.0
  9
$3DDWFPREC
 40
2.0
  9
$PSOLWIDTH
 40
0.25
  9
$PSOLHEIGHT
 40
4.0
  9
$LOFTANG1
 40
1.570796326794897
  9
$LOFTANG2
 40
1.570796326794897
  9
$LOFTMAG1
 40
0.0
  9
$LOFTMAG2
 40
0.0
  9
$LOFTPARAM
 70
     7
  9
$LOFTNORMALS
280
     1
  9
$LATITUDE
 40
37.795
  9
$LONGITUDE
 40
-122.394
  9
$NORTHDIRECTION
 40
0.0
  9
$TIMEZONE
 70
 -8000
  9
$LIGHTGLYPHDISPLAY
280
     1
  9
$TILEMODELIGHTSYNCH
280
     1
  9
$CMATERIAL
347
3C
  9
$SOLIDHIST
280
     1
  9
$SHOWHIST
280
     1
  9
$DWFFRAME
280
     2
  9
$DGNFRAME
280
     2
  9
$REALWORLDSCALE
290
     1
  9
$INTERFERECOLOR
 62
   256
  9
$CSHADOW
280
     0
  9
$SHADOWPLANELOCATION
 40
0.0
  0
ENDSEC
  0
SECTION
  2
CLASSES
  0
CLASS
  1
ACDBDICTIONARYWDFLT
  2
AcDbDictionaryWithDefault
  3
ObjectDBX Classes
 90
        0
 91
        4
280
     0
281
     0
  0
CLASS
  1
VISUALSTYLE
  2
AcDbVisualStyle
  3
ObjectDBX Classes
 90
     4095
 91
        4
280
     0
281
     0
  0
CLASS
  1
MATERIAL
  2
AcDbMaterial
  3
ObjectDBX Classes
 90
     1153
 91
        4
280
     0
281
     0
  0
CLASS
  1
SUN
  2
AcDbSun
  3
SCENEOE
 90
     1024
 91
        4
280
     0
281
     0
  0
CLASS
  1
AEC_VARS_DWG_SETUP
  2
AecDbVarsDwgSetup
  3
AecBase60
 90
      129
 91
        4
280
     0
281
     0
  0
CLASS
  1
AEC_DISP_REP_2D_SECTION
  2
AecDbDispRep2dSection
  3
AecBase60
 90
      129
 91
        4
280
     0
281
     0
  0
CLASS
  1
AEC_DISP_PROPS_2D_SECTION
  2
AecDbDispProps2dSection
  3
AecBase60
 90
      129
 91
        4
280
     0
281
     0
  0
CLASS
  1
AEC_DISP_REP_CLIP_VOLUME_MODEL
  2
AecDbDispRepClipVolModel
  3
AecBase60
 90
      129
 91
        6
280
     0
281
     0
  0
CLASS
  1
AEC_DISP_PROPS_CLIP_VOLUME
  2
AecDbDispPropsClipVol
  3
AecBase60
 90
      129
 91
        4
280
     0
281
     0
  0
CLASS
  1
AEC_DISP_REP_CLIP_VOLUME_PLAN
  2
AecDbDispRepClipVolPlan
  3
AecBase60
 90
      129
 91
        4
280
     0
281
     0
  0
CLASS
  1
AEC_DISP_REP_CLIP_VOLUME_RESULT
  2
AecDbDispRepClipVolResult
  3
AecBase60
 90
      129
 91
        6
280
     0
281
     0
  0
CLASS
  1
AEC_DISP_REP_CLIP_VOLUME_RESULT_SUBDIV
  2
AecDbDispRepClipVolResSubDiv
  3
AecBase60
 90
      129
 91
        5
280
     0
281
     0
  0
CLASS
  1
AEC_DISP_PROPS_CLIP_VOLUME_RESULT
  2
AecDbDispPropsClipVolResSubDiv
  3
AecBase60
 90
      129
 91
        4
280
     0
281
     0
  0
CLASS
  1
AEC_DISP_REP_DISPLAYTHEME
  2
AecDbDispRepDisplayTheme
  3
AecBase60
 90
      129
 91
        4
280
     0
281
     0
  0
CLASS
  1
AEC_DISP_PROPS_DISPLAYTHEME
  2
AecDbDispPropsDisplayTheme
  3
AecBase60
 90
      129
 91
        4
280
     0
281
     0
  0
CLASS
  1
AEC_DISP_REP_ENT_REF
  2
AecDbDispRepEntRef
  3
AecBase60
 90
      129
 91
        4
280
     0
281
     0
  0
CLASS
  1
AEC_DISP_PROPS_ENT_REF
  2
AecDbDispPropsEntRef
  3
AecBase60
 90
      129
 91
        4
280
     0
281
     0
  0
CLASS
  1
AEC_DISP_REP_LAYOUT_CURVE
  2
AecDbDispRepLayoutCurve
  3
AecBase60
 90
      129
 91
        4
280
     0
281
     0
  0
CLASS
  1
AEC_DISP_PROPS_LAYOUT_CURVE
  2
AecDbDispPropsLayoutCurve
  3
AecBase60
 90
      129
 91
        4
280
     0
281
     0
  0
CLASS
  1
AEC_DISP_REP_LAYOUT_GRID2D
  2
AecDbDispRepLayoutGrid2d
  3
AecBase60
 90
      129
 91
        6
280
     0
281
     0
  0
CLASS
  1
AEC_DISP_PROPS_LAYOUT_GRID2D
  2
AecDbDispPropsLayoutGrid2d
  3
AecBase60
 90
      129
 91
        5
280
     0
281
     0
  0
CLASS
  1
AEC_DISP_REP_LAYOUT_GRID3D
  2
AecDbDispRepLayoutGrid3d
  3
AecBase60
 90
      129
 91
        4
280
     0
281
     0
  0
CLASS
  1
AEC_DISP_PROPS_LAYOUT_GRID3D
  2
AecDbDispPropsLayoutGrid3d
  3
AecBase60
 90
      129
 91
        4
280
     0
281
     0
  0
CLASS
  1
AEC_DISP_REP_MASKBLOCK_REF
  2
AecDbDispRepMaskBlockRef
  3
AecBase60
 90
      129
 91
        5
280
     0
281
     0
  0
CLASS
  1
AEC_DISP_PROPS_MASKBLOCK
  2
AecDbDispPropsMaskBlock
  3
AecBase60
 90
      129
 91
        4
280
     0
281
     0
  0
CLASS
  1
AEC_DISP_REP_MASKBLOCK_REF_RCP
  2
AecDbDispRepMaskBlockRefRcp
  3
AecArchBase60
 90
      129
 91
        4
280
     0
281
     0
  0
CLASS
  1
AEC_DISP_REP_MASS_ELEM_MODEL
  2
AecDbDispRepMassElemModel
  3
AecBase60
 90
      129
 91
        4
280
     0
281
     0
  0
CLASS
  1
AEC_DISP_PROPS_MASS_ELEM_MODEL
  2
AecDbDispPropsMassElem
  3
AecBase60
 90
      129
 91
        5
280
     0
281
     0
  0
CLASS
  1
AEC_DISP_REP_MASS_ELEM_SCHEM
  2
AecDbDispRepMassElemSchem
  3
AecBase60
 90
      129
 91
        5
280
     0
281
     0
  0
CLASS
  1
AEC_DISPREPAECDBDISPREPMASSELEMPLAN50
  2
AecDbDispRepMassElemPlan50
  3
AecArchDACHBase60
 90
      129
 91
        4
280
     0
281
     0
  0
CLASS
  1
AEC_DISPROPSMASSELEMPLANCOMMON
  2
AecDbDispPropsMassElemPlanCommon
  3
AecArchDACHBase60
 90
      129
 91
        4
280
     0
281
     0
  0
CLASS
  1
AEC_DISPREPAECDBDISPREPMASSELEMPLAN100
  2
AecDbDispRepMassElemPlan100
  3
AecArchDACHBase60
 90
      129
 91
        4
280
     0
281
     0
  0
CLASS
  1
AEC_DISP_REP_MASS_ELEM_RCP
  2
AecDbDispRepMassElemRcp
  3
AecArchBase60
 90
      129
 91
        4
280
     0
281
     0
  0
CLASS
  1
AEC_DISP_REP_MASS_GROUP_MODEL
  2
AecDbDispRepMassGroupModel
  3
AecBase60
 90
      129
 91
        4
280
     0
281
     0
  0
CLASS
  1
AEC_DISP_PROPS_MASS_GROUP
  2
AecDbDispPropsMassGroup
  3
AecBase60
 90
      129
 91
        5
280
     0
281
     0
  0
CLASS
  1
AEC_DISP_REP_MASS_GROUP_PLAN
  2
AecDbDispRepMassGroupPlan
  3
AecBase60
 90
      129
 91
        8
280
     0
281
     0
  0
CLASS
  1
AEC_DISPREPAECDBDISPREPMASSGROUPPLAN50
  2
AecDbDispRepMassGroupPlan50
  3
AecArchDACHBase60
 90
      129
 91
        4
280
     0
281
     0
  0
CLASS
  1
AEC_DISPROPSMASSGROUPPLANCOMMON
  2
AecDbDispPropsMassGroupPlanCommon
  3
AecArchDACHBase60
 90
      129
 91
        4
280
     0
281
     0
  0
CLASS
  1
AEC_DISPREPAECDBDISPREPMASSGROUPPLAN100
  2
AecDbDispRepMassGroupPlan100
  3
AecArchDACHBase60
 90
      129
 91
        4
280
     0
281
     0
  0
CLASS
  1
AEC_DISP_REP_MASS_GROUP_RCP
  2
AecDbDispRepMassGroupRcp
  3
AecArchBase60
 90
      129
 91
        4
280
     0
281
     0
  0
CLASS
  1
AEC_DISP_REP_MVBLOCK_REF
  2
AecDbDispRepMvBlockRef
  3
AecBase60
 90
      129
 91
        8
280
     0
281
     0
  0
CLASS
  1
AEC_DISP_REP_MVBLOCK_REF_MODEL
  2
AecDbDispRepMvBlockRefModel
  3
AecBase60
 90
      129
 91
        4
280
     0
281
     0
  0
CLASS
  1
AEC_AECDBDISPREPMVBLOCKREFPLAN100
  2
AecDbDispRepMvBlockRefPlan100
  3
AecBase60
 90
      129
 91
        4
280
     0
281
     0
  0
CLASS
  1
AEC_AECDBDISPREPMVBLOCKREFPLAN50
  2
AecDbDispRepMvBlockRefPlan50
  3
AecBase60
 90
      129
 91
        4
280
     0
281
     0
  0
CLASS
  1
AEC_DISP_REP_POLYGON_MODEL
  2
AecDbDispRepPolygonModel
  3
AecBase60
 90
      129
 91
        4
280
     0
281
     0
  0
CLASS
  1
AEC_DISP_PROPS_POLYGON_MODEL
  2
AecDbDispPropsPolygonModel
  3
AecBase60
 90
      129
 91
        4
280
     0
281
     0
  0
CLASS
  1
AEC_DISP_REP_POLYGON_TRUECOLOUR
  2
AecDbDispRepPolygonTrueColour
  3
AecBase60
 90
      129
 91
        4
280
     0
281
     0
  0
CLASS
  1
AEC_DISP_PROPS_POLYGON_TRUECOLOUR
  2
AecDbDispPropsPolygonTrueColour
  3
AecBase60
 90
      129
 91
        4
280
     0
281
     0
  0
CLASS
  1
AEC_DISP_REP_SLICE
  2
AecDbDispRepSlice
  3
AecBase60
 90
      129
 91
        4
280
     0
281
     0
  0
CLASS
  1
AEC_DISP_PROPS_SLICE
  2
AecDbDispPropsSlice
  3
AecBase60
 90
      129
 91
        4
280
     0
281
     0
  0
CLASS
  1
AEC_DISP_REP_ANCHOR
  2
AecDbDispRepAnchor
  3
AecBase60
 90
      129
 91
        4
280
     0
281
     0
  0
CLASS
  1
AEC_DISP_REP_ANCHOR_ENT_TO_NODE
  2
AecDbDispRepAnchorEntToNode
  3
AecBase60
 90
      129
 91
        5
280
     0
281
     0
  0
CLASS
  1
AEC_DISP_PROPS_ENT
  2
AecDbDispPropsEnt
  3
AecBase60
 90
      129
 91
        4
280
     0
281
     0
  0
CLASS
  1
AEC_DISP_REP_MATERIAL
  2
AecDbDispRepMaterial
  3
AecBase60
 90
      129
 91
        4
280
     0
281
     0
  0
CLASS
  1
AEC_DISP_PROPS_MATERIAL
  2
AecDbDispPropsMaterial
  3
AecBase60
 90
      129
 91
        4
280
     0
281
     0
  0
CLASS
  1
AEC_DISP_REP_EDITINPLACEPROFILE
  2
AecDbDispRepEditInPlaceProfile
  3
AecBase60
 90
      129
 91
        4
280
     0
281
     0
  0
CLASS
  1
AEC_DISP_PROPS_EDITINPLACEPROFILE_MODEL
  2
AecDbDispPropsEditInPlaceProfile
  3
AecBase60
 90
      129
 91
        4
280
     0
281
     0
  0
CLASS
  1
AEC_VARS_ARCHBASE
  2
AecDbVarsArchBase
  3
AecArchBase60
 90
      129
 91
        4
280
     0
281
     0
  0
CLASS
  1
AEC_DISP_REP_BDG_ELEVLINE_PLAN
  2
AecDbDispRepBdgElevLinePlan
  3
AecArchBase60
 90
      129
 91
        7
280
     0
281
     0
  0
CLASS
  1
AEC_DISP_REP_BDG_ELEVLINE_MODEL
  2
AecDbDispRepBdgElevLineModel
  3
AecArchBase60
 90
      129
 91
        4
280
     0
281
     0
  0
CLASS
  1
AEC_DISP_REP_BDG_ELEVLINE_RCP
  2
AecDbDispRepBdgElevLineRcp
  3
AecArchBase60
 90
      129
 91
        4
280
     0
281
     0
  0
CLASS
  1
AEC_AECDBDISPREPBDGELEVLINEPLAN100
  2
AecDbDispRepBdgElevLinePlan100
  3
AecBase60
 90
      129
 91
        4
280
     0
281
     0
  0
CLASS
  1
AEC_AECDBDISPREPBDGELEVLINEPLAN50
  2
AecDbDispRepBdgElevLinePlan50
  3
AecBase60
 90
      129
 91
        4
280
     0
281
     0
  0
CLASS
  1
AEC_DISP_REP_BDG_SECTIONLINE_MODEL
  2
AecDbDispRepBdgSectionLineModel
  3
AecArchBase60
 90
      129
 91
        4
280
     0
281
     0
  0
CLASS
  1
AEC_DISP_REP_BDG_SECTIONLINE_PLAN
  2
AecDbDispRepBdgSectionLinePlan
  3
AecArchBase60
 90
      129
 91
        7
280
     0
281
     0
  0
CLASS
  1
AEC_DISP_REP_BDG_SECTIONLINE_RCP
  2
AecDbDispRepBdgSectionLineRcp
  3
AecArchBase60
 90
      129
 91
        4
280
     0
281
     0
  0
CLASS
  1
AEC_AECDBDISPREPBDGSECTIONLINEPLAN100
  2
AecDbDispRepBdgSectionLinePlan100
  3
AecBase60
 90
      129
 91
        4
280
     0
281
     0
  0
CLASS
  1
AEC_AECDBDISPREPBDGSECTIONLINEPLAN50
  2
AecDbDispRepBdgSectionLinePlan50
  3
AecBase60
 90
      129
 91
        4
280
     0
281
     0
  0
CLASS
  1
AEC_DISP_REP_BDG_SECTION_SUBDIV
  2
AecDbDispRepBdgSectionSubDiv
  3
AecArchBase60
 90
      129
 91
        4
280
     0
281
     0
  0
CLASS
  1
AEC_DISP_REP_BDG_SECTION_MODEL
  2
AecDbDispRepBdgSectionModel
  3
AecArchBase60
 90
      129
 91
        4
280
     0
281
     0
  0
CLASS
  1
AEC_DISP_REP_CEILING_GRID
  2
AecDbDispRepCeilingGrid
  3
AecArchBase60
 90
      893
 91
        8
280
     0
281
     0
  0
CLASS
  1
AEC_DISP_REP_CEILING_GRID_MODEL
  2
AecDbDispRepCeilingGridModel
  3
AecArchBase60
 90
      129
 91
        4
280
     0
281
     0
  0
CLASS
  1
AEC_DISP_REP_CEILING_GRID_RCP
  2
AecDbDispRepCeilingGridRcp
  3
AecArchBase60
 90
      129
 91
        4
280
     0
281
     0
  0
CLASS
  1
AEC_AECDBDISPREPCEILINGGRIDPLAN100
  2
AecDbDispRepCeilingGridPlan100
  3
AecBase60
 90
      129
 91
        4
280
     0
281
     0
  0
CLASS
  1
AEC_AECDBDISPREPCEILINGGRIDPLAN50
  2
AecDbDispRepCeilingGridPlan50
  3
AecBase60
 90
      129
 91
        4
280
     0
281
     0
  0
CLASS
  1
AEC_DISP_REP_CURTAIN_WALL_LAYOUT_MODEL
  2
AecDbDispRepCurtainWallLayoutModel
  3
AecArchBase60
 90
      129
 91
        4
280
     0
281
     0
  0
CLASS
  1
AEC_DISP_PROPS_GRID_ASSEMBLY_MODEL
  2
AecDbDispPropsGridAssemblyModel
  3
AecArchBase60
 90
      129
 91
        4
280
     0
281
     0
  0
CLASS
  1
AEC_DISP_REP_CURTAIN_WALL_LAYOUT_PLAN
  2
AecDbDispRepCurtainWallLayoutPlan
  3
AecArchBase60
 90
      129
 91
        6
280
     0
281
     0
  0
CLASS
  1
AEC_DISP_PROPS_GRID_ASSEMBLY_PLAN
  2
AecDbDispPropsGridAssemblyPlan
  3
AecArchBase60
 90
      129
 91
        4
280
     0
281
     0
  0
CLASS
  1
AEC_AECDBDISPREPCURTAINWALLLAYOUTPLAN100
  2
AecDbDispRepCurtainWallLayoutPlan100
  3
AecBase60
 90
      129
 91
        4
280
     0
281
     0
  0
CLASS
  1
AEC_AECDBDISPREPCURTAINWALLLAYOUTPLAN50
  2
AecDbDispRepCurtainWallLayoutPlan50
  3
AecBase60
 90
      129
 91
        4
280
     0
281
     0
  0
CLASS
  1
AEC_DISP_REP_CURTAIN_WALL_UNIT_MODEL
  2
AecDbDispRepCurtainWallUnitModel
  3
AecArchBase60
 90
      129
 91
        4
280
     0
281
     0
  0
CLASS
  1
AEC_DISP_REP_CURTAIN_WALL_UNIT_PLAN
  2
AecDbDispRepCurtainWallUnitPlan
  3
AecArchBase60
 90
      129
 91
        6
280
     0
281
     0
  0
CLASS
  1
AEC_AECDBDISPREPCURTAINWALLUNITPLAN100
  2
AecDbDispRepCurtainWallUnitPlan100
  3
AecBase60
 90
      129
 91
        4
280
     0
281
     0
  0
CLASS
  1
AEC_AECDBDISPREPCURTAINWALLUNITPLAN50
  2
AecDbDispRepCurtainWallUnitPlan50
  3
AecBase60
 90
      129
 91
        4
280
     0
281
     0
  0
CLASS
  1
AEC_DISP_REP_DOOR_MODEL
  2
AecDbDispRepDoorModel
  3
AecArchBase60
 90
      129
 91
        5
280
     0
281
     0
  0
CLASS
  1
AEC_DISP_PROPS_DOOR
  2
AecDbDispPropsDoor
  3
AecArchBase60
 90
      129
 91
        5
280
     0
281
     0
  0
CLASS
  1
AEC_DISP_REP_DOOR_ELEV
  2
AecDbDispRepDoorElev
  3
AecArchBase60
 90
      129
 91
        4
280
     0
281
     0
  0
CLASS
  1
AEC_DISP_REP_DOOR_PLAN
  2
AecDbDispRepDoorPlan
  3
AecArchBase60
 90
      129
 91
        8
280
     0
281
     0
  0
CLASS
  1
AEC_DISP_REP_DOOR_NOMINAL
  2
AecDbDispRepDoorNominal
  3
AecArchBase60
 90
      129
 91
        4
280
     0
281
     0
  0
CLASS
  1
AEC_DISP_PROPS_DOOR_NOMINAL
  2
AecDbDispPropsDoorNominal
  3
AecArchBase60
 90
      129
 91
        4
280
     0
281
     0
  0
CLASS
  1
AEC_DISP_REP_DOOR_THRESHOLD_PLAN
  2
AecDbDispRepDoorThresholdPlan
  3
AecArchBase60
 90
      129
 91
        4
280
     0
281
     0
  0
CLASS
  1
AEC_DISP_PROPS_DOOR_THRESHOLD_PLAN
  2
AecDbDispPropsDoorThresholdPlan
  3
AecArchBase60
 90
      129
 91
        4
280
     0
281
     0
  0
CLASS
  1
AEC_DISP_REP_DOOR_PLAN_50
  2
AecDbDispRepDoorPlan50
  3
AecArchDACHBase60
 90
      129
 91
        4
280
     0
281
     0
  0
CLASS
  1
AEC_DISP_PROPS_DOOR_PLAN_50
  2
AecDbDispPropsDoorPlan50
  3
AecArchDACHBase60
 90
      129
 91
        4
280
     0
281
     0
  0
CLASS
  1
AEC_DISP_REP_DOOR_PLAN_HEKTO
  2
AecDbDispRepDoorPlanHekto
  3
AecArchDACHBase60
 90
      129
 91
        4
280
     0
281
     0
  0
CLASS
  1
AEC_DISP_PROPS_DOOR_PLAN_100
  2
AecDbDispPropsDoorPlan100
  3
AecArchDACHBase60
 90
      129
 91
        4
280
     0
281
     0
  0
CLASS
  1
AEC_DISP_REP_DOOR_RCP
  2
AecDbDispRepDoorRcp
  3
AecArchBase60
 90
      129
 91
        4
280
     0
281
     0
  0
CLASS
  1
AEC_DISP_REP_DOOR_THRESHOLD_SYMBOL_PLAN
  2
AecDbDispRepDoorThresholdSymbolPlan
  3
AecArchDACHBase60
 90
      129
 91
        4
280
     0
281
     0
  0
CLASS
  1
AEC_DISP_PROPS_DOOR_THRESHOLD_SYMBOL_PLAN
  2
AecDbDispPropsDoorThresholdSymbolPlan
  3
AecArchDACHBase60
 90
      129
 91
        4
280
     0
281
     0
  0
CLASS
  1
AEC_DISP_REP_OPENING
  2
AecDbDispRepOpening
  3
AecArchBase60
 90
      129
 91
        6
280
     0
281
     0
  0
CLASS
  1
AEC_DISP_PROPS_OPENING
  2
AecDbDispPropsOpening
  3
AecArchBase60
 90
      129
 91
        5
280
     0
281
     0
  0
CLASS
  1
AEC_DISP_REP_OPENING_MODEL
  2
AecDbDispRepOpeningModel
  3
AecArchBase60
 90
      129
 91
        4
280
     0
281
     0
  0
CLASS
  1
AEC_DISPREPAECDBDISPREPOPENINGPLAN100
  2
AecDbDispRepOpeningPlan100
  3
AecArchDACHBase60
 90
      129
 91
        4
280
     0
281
     0
  0
CLASS
  1
AEC_DISPROPSOPENINGPLANCOMMONHATCHED
  2
AecDbDispPropsOpeningPlanCommonHatched
  3
AecArchDACHBase60
 90
      129
 91
        4
280
     0
281
     0
  0
CLASS
  1
AEC_DISPREPAECDBDISPREPOPENINGPLAN50
  2
AecDbDispRepOpeningPlan50
  3
AecArchDACHBase60
 90
      129
 91
        4
280
     0
281
     0
  0
CLASS
  1
AEC_DISPREPAECDBDISPREPOPENINGPLANREFLECTED
  2
AecDbDispRepOpeningPlanReflected
  3
AecArchDACHBase60
 90
      129
 91
        4
280
     0
281
     0
  0
CLASS
  1
AEC_DISPROPSOPENINGPLANCOMMON
  2
AecDbDispPropsOpeningPlanCommon
  3
AecArchDACHBase60
 90
      129
 91
        5
280
     0
281
     0
  0
CLASS
  1
AEC_DISPREPAECDBDISPREPOPENINGSILLPLAN
  2
AecDbDispRepOpeningSillPlan
  3
AecArchDACHBase60
 90
      129
 91
        4
280
     0
281
     0
  0
CLASS
  1
AEC_DISPROPSOPENINGSILLPLAN
  2
AecDbDispPropsOpeningSillPlan
  3
AecArchDACHBase60
 90
      129
 91
        4
280
     0
281
     0
  0
CLASS
  1
AEC_DISP_REP_RAILING_MODEL
  2
AecDbDispRepRailingModel
  3
AecArchBase60
 90
      129
 91
        4
280
     0
281
     0
  0
CLASS
  1
AEC_DISP_PROPS_RAILING_MODEL
  2
AecDbDispPropsRailingModel
  3
AecArchBase60
 90
      129
 91
        4
280
     0
281
     0
  0
CLASS
  1
AEC_DISP_REP_RAILING_PLAN
  2
AecDbDispRepRailingPlan
  3
AecArchBase60
 90
      129
 91
        5
280
     0
281
     0
  0
CLASS
  1
AEC_DISP_PROPS_RAILING_PLAN
  2
AecDbDispPropsRailingPlan
  3
AecArchBase60
 90
      129
 91
        5
280
     0
281
     0
  0
CLASS
  1
AEC_DISP_REP_RAILING_PLAN_100
  2
AecDbDispRepRailingPlan100
  3
AecArchDACHBase60
 90
      129
 91
        4
280
     0
281
     0
  0
CLASS
  1
AEC_DISP_ROPS_RAILING_PLAN_100
  2
AecDbDispPropsRailingPlan100
  3
AecArchDACHBase60
 90
      129
 91
        4
280
     0
281
     0
  0
CLASS
  1
AEC_DISP_REP_RAILING_PLAN_50
  2
AecDbDispRepRailingPlan50
  3
AecArchDACHBase60
 90
      129
 91
        4
280
     0
281
     0
  0
CLASS
  1
AEC_DISP_ROPS_RAILING_PLAN_50
  2
AecDbDispPropsRailingPlan50
  3
AecArchDACHBase60
 90
      129
 91
        4
280
     0
281
     0
  0
CLASS
  1
AEC_DISP_REP_ROOF_MODEL
  2
AecDbDispRepRoofModel
  3
AecArchBase60
 90
      129
 91
        4
280
     0
281
     0
  0
CLASS
  1
AEC_DISP_PROPS_ROOF
  2
AecDbDispPropsRoof
  3
AecArchBase60
 90
      129
 91
        4
280
     0
281
     0
  0
CLASS
  1
AEC_DISP_REP_ROOF_PLAN
  2
AecDbDispRepRoofPlan
  3
AecArchBase60
 90
      129
 91
        8
280
     0
281
     0
  0
CLASS
  1
AEC_DISP_REP_ROOF_RCP
  2
AecDbDispRepRoofRcp
  3
AecArchBase60
 90
      129
 91
        4
280
     0
281
     0
  0
CLASS
  1
AEC_AECDBDISPREPROOFPLAN100
  2
AecDbDispRepRoofPlan100
  3
AecBase60
 90
      129
 91
        4
280
     0
281
     0
  0
CLASS
  1
AEC_AECDBDISPREPROOFPLAN50
  2
AecDbDispRepRoofPlan50
  3
AecBase60
 90
      129
 91
        4
280
     0
281
     0
  0
CLASS
  1
AEC_DISP_REP_ROOFSLAB_MODEL
  2
AecDbDispRepRoofSlabModel
  3
AecArchBase60
 90
      129
 91
        4
280
     0
281
     0
  0
CLASS
  1
AEC_DISP_PROPS_ROOFSLAB
  2
AecDbDispPropsRoofSlab
  3
AecArchBase60
 90
      129
 91
        4
280
     0
281
     0
  0
CLASS
  1
AEC_DISP_REP_ROOFSLAB_PLAN
  2
AecDbDispRepRoofSlabPlan
  3
AecArchBase60
 90
      129
 91
        6
280
     0
281
     0
  0
CLASS
  1
AEC_DISP_PROPS_ROOFSLAB_PLAN
  2
AecDbDispPropsRoofSlabPlan
  3
AecArchBase60
 90
      129
 91
        4
280
     0
281
     0
  0
CLASS
  1
AEC_AECDBDISPREPROOFSLABPLAN100
  2
AecDbDispRepRoofSlabPlan100
  3
AecBase60
 90
      129
 91
        4
280
     0
281
     0
  0
CLASS
  1
AEC_AECDBDISPREPROOFSLABPLAN50
  2
AecDbDispRepRoofSlabPlan50
  3
AecBase60
 90
      129
 91
        4
280
     0
281
     0
  0
CLASS
  1
AEC_DISP_REP_SLAB_MODEL
  2
AecDbDispRepSlabModel
  3
AecArchBase60
 90
      129
 91
        5
280
     0
281
     0
  0
CLASS
  1
AEC_DISP_PROPS_SLAB
  2
AecDbDispPropsSlab
  3
AecArchBase60
 90
      129
 91
        6
280
     0
281
     0
  0
CLASS
  1
AEC_DISP_REP_SLAB_PLAN
  2
AecDbDispRepSlabPlan
  3
AecArchBase60
 90
      129
 91
        7
280
     0
281
     0
  0
CLASS
  1
AEC_DISP_PROPS_SLAB_PLAN
  2
AecDbDispPropsSlabPlan
  3
AecArchBase60
 90
      129
 91
        5
280
     0
281
     0
  0
CLASS
  1
AEC_AECDBDISPREPSLABPLAN100
  2
AecDbDispRepSlabPlan100
  3
AecBase60
 90
      129
 91
        4
280
     0
281
     0
  0
CLASS
  1
AEC_AECDBDISPREPSLABPLAN50
  2
AecDbDispRepSlabPlan50
  3
AecBase60
 90
      129
 91
        4
280
     0
281
     0
  0
CLASS
  1
AEC_DISP_REP_SPACE_MODEL
  2
AecDbDispRepSpaceModel
  3
AecArchBase60
 90
      129
 91
        4
280
     0
281
     0
  0
CLASS
  1
AEC_DISP_PROPS_SPACE_MODEL
  2
AecDbDispPropsSpaceModel
  3
AecArchBase60
 90
      129
 91
        4
280
     0
281
     0
  0
CLASS
  1
AEC_DISP_REP_SPACE_PLAN
  2
AecDbDispRepSpacePlan
  3
AecArchBase60
 90
      129
 91
        7
280
     0
281
     0
  0
CLASS
  1
AEC_DISP_PROPS_SPACE_PLAN
  2
AecDbDispPropsSpacePlan
  3
AecArchBase60
 90
      129
 91
        4
280
     0
281
     0
  0
CLASS
  1
AEC_DISP_REP_SPACE_RCP
  2
AecDbDispRepSpaceRcp
  3
AecArchBase60
 90
      129
 91
        4
280
     0
281
     0
  0
CLASS
  1
AEC_DISP_REP_SPACE_VOLUME
  2
AecDbDispRepSpaceVolume
  3
AecArchBase60
 90
      129
 91
        4
280
     0
281
     0
  0
CLASS
  1
AEC_DISP_REP_SPACE_DECOMPOSED
  2
AecDbDispRepSpaceDecomposed
  3
AecArchBase60
 90
      129
 91
        4
280
     0
281
     0
  0
CLASS
  1
AEC_DISP_PROPS_SPACE_DECOMPOSED
  2
AecDbDispPropsSpaceDecomposed
  3
AecArchBase60
 90
      129
 91
        4
280
     0
281
     0
  0
CLASS
  1
AEC_AECDBDISPREPSPACEPLAN100
  2
AecDbDispRepSpacePlan100
  3
AecBase60
 90
      129
 91
        4
280
     0
281
     0
  0
CLASS
  1
AEC_AECDBDISPREPSPACEPLAN50
  2
AecDbDispRepSpacePlan50
  3
AecBase60
 90
      129
 91
        4
280
     0
281
     0
  0
CLASS
  1
AEC_DISP_REP_STAIR_MODEL
  2
AecDbDispRepStairModel
  3
AecArchBase60
 90
      129
 91
        4
280
     0
281
     0
  0
CLASS
  1
AEC_DISP_PROPS_STAIR_MODEL
  2
AecDbDispPropsStairModel
  3
AecArchBase60
 90
      129
 91
        4
280
     0
281
     0
  0
CLASS
  1
AEC_DISP_REP_STAIR_PLAN
  2
AecDbDispRepStairPlan
  3
AecArchBase60
 90
      129
 91
        7
280
     0
281
     0
  0
CLASS
  1
AEC_DISP_PROPS_STAIR_PLAN
  2
AecDbDispPropsStairPlan
  3
AecArchBase60
 90
      129
 91
        6
280
     0
281
     0
  0
CLASS
  1
AEC_DISP_REP_STAIR_RCP
  2
AecDbDispRepStairRcp
  3
AecArchBase60
 90
      129
 91
        4
280
     0
281
     0
  0
CLASS
  1
AEC_DISP_REP_STAIR_PLAN_100
  2
AecDbDispRepStairPlan100
  3
AecArchDACHBase60
 90
      129
 91
        4
280
     0
281
     0
  0
CLASS
  1
AEC_DISP_ROPS_STAIR_PLAN_100
  2
AecDbDispPropsStairPlan100
  3
AecArchDACHBase60
 90
      129
 91
        4
280
     0
281
     0
  0
CLASS
  1
AEC_DISP_REP_STAIR_PLAN_50
  2
AecDbDispRepStairPlan50
  3
AecArchDACHBase60
 90
      129
 91
        4
280
     0
281
     0
  0
CLASS
  1
AEC_DISP_ROPS_STAIR_PLAN_50
  2
AecDbDispPropsStairPlan50
  3
AecArchDACHBase60
 90
      129
 91
        4
280
     0
281
     0
  0
CLASS
  1
AEC_DISP_REP_STAIR_PLAN_OVERLAPPING
  2
AecDbDispRepStairPlanOverlapping
  3
AecArchBase60
 90
      129
 91
        4
280
     0
281
     0
  0
CLASS
  1
AEC_DISP_PROPS_STAIR_PLAN_OVERLAPPING
  2
AecDbDispPropsStairPlanOverlapping
  3
AecArchBase60
 90
      129
 91
        4
280
     0
281
     0
  0
CLASS
  1
AEC_DISP_REP_WALL_GRAPH
  2
AecDbDispRepWallGraph
  3
AecArchBase60
 90
      129
 91
        4
280
     0
281
     0
  0
CLASS
  1
AEC_DISP_PROPS_WALL_GRAPH
  2
AecDbDispPropsWallGraph
  3
AecArchBase60
 90
      129
 91
        4
280
     0
281
     0
  0
CLASS
  1
AEC_DISP_REP_WALL_MODEL
  2
AecDbDispRepWallModel
  3
AecArchBase60
 90
      129
 91
        4
280
     0
281
     0
  0
CLASS
  1
AEC_DISP_PROPS_WALL_MODEL
  2
AecDbDispPropsWallModel
  3
AecArchBase60
 90
      129
 91
        4
280
     0
281
     0
  0
CLASS
  1
AEC_DISP_REP_WALL_PLAN
  2
AecDbDispRepWallPlan
  3
AecArchBase60
 90
      129
 91
        7
280
     0
281
     0
  0
CLASS
  1
AEC_DISP_PROPS_WALL_PLAN
  2
AecDbDispPropsWallPlan
  3
AecArchBase60
 90
      129
 91
        4
280
     0
281
     0
  0
CLASS
  1
AEC_DISP_REP_WALL_RCP
  2
AecDbDispRepWallRcp
  3
AecArchBase60
 90
      129
 91
        4
280
     0
281
     0
  0
CLASS
  1
AEC_DISP_REP_WALL_SCHEM
  2
AecDbDispRepWallSchem
  3
AecArchBase60
 90
      129
 91
        4
280
     0
281
     0
  0
CLASS
  1
AEC_DISP_PROPS_WALL_SCHEM
  2
AecDbDispPropsWallSchem
  3
AecArchBase60
 90
      129
 91
        4
280
     0
281
     0
  0
CLASS
  1
AEC_AECDBDISPREPWALLPLAN100
  2
AecDbDispRepWallPlan100
  3
AecBase60
 90
      129
 91
        4
280
     0
281
     0
  0
CLASS
  1
AEC_AECDBDISPREPWALLPLAN50
  2
AecDbDispRepWallPlan50
  3
AecBase60
 90
      129
 91
        4
280
     0
281
     0
  0
CLASS
  1
AEC_DISP_REP_WINDOW_MODEL
  2
AecDbDispRepWindowModel
  3
AecArchBase60
 90
      129
 91
        5
280
     0
281
     0
  0
CLASS
  1
AEC_DISP_PROPS_WINDOW
  2
AecDbDispPropsWindow
  3
AecArchBase60
 90
      129
 91
        6
280
     0
281
     0
  0
CLASS
  1
AEC_DISP_REP_WINDOW_ELEV
  2
AecDbDispRepWindowElev
  3
AecArchBase60
 90
      129
 91
        4
280
     0
281
     0
  0
CLASS
  1
AEC_DISP_REP_WINDOW_PLAN
  2
AecDbDispRepWindowPlan
  3
AecArchBase60
 90
      129
 91
        8
280
     0
281
     0
  0
CLASS
  1
AEC_DISP_REP_WINDOW_NOMINAL
  2
AecDbDispRepWindowNominal
  3
AecArchBase60
 90
      129
 91
        4
280
     0
281
     0
  0
CLASS
  1
AEC_DISP_PROPS_WINDOW_NOMINAL
  2
AecDbDispPropsWindowNominal
  3
AecArchBase60
 90
      129
 91
        4
280
     0
281
     0
  0
CLASS
  1
AEC_DISP_REP_WINDOW_RCP
  2
AecDbDispRepWindowRcp
  3
AecArchBase60
 90
      129
 91
        4
280
     0
281
     0
  0
CLASS
  1
AEC_DISP_REP_WINDOW_SILL_PLAN
  2
AecDbDispRepWindowSillPlan
  3
AecArchBase60
 90
      129
 91
        4
280
     0
281
     0
  0
CLASS
  1
AEC_DISP_PROPS_WINDOW_SILL_PLAN
  2
AecDbDispPropsWindowSillPlan
  3
AecArchBase60
 90
      129
 91
        4
280
     0
281
     0
  0
CLASS
  1
AEC_DISP_REP_WINDOW_PLAN_100
  2
AecDbDispRepWindowPlan100
  3
AecArchDACHBase60
 90
      129
 91
        4
280
     0
281
     0
  0
CLASS
  1
AEC_DISP_PROPS_WINDOW_PLAN_100
  2
AecDbDispPropsWindowPlan100
  3
AecArchDACHBase60
 90
      129
 91
        4
280
     0
281
     0
  0
CLASS
  1
AEC_DISP_REP_WINDOW_PLAN_50
  2
AecDbDispRepWindowPlan50
  3
AecArchDACHBase60
 90
      129
 91
        4
280
     0
281
     0
  0
CLASS
  1
AEC_DISP_PROPS_WINDOW_PLAN_50
  2
AecDbDispPropsWindowPlan50
  3
AecArchDACHBase60
 90
      129
 91
        4
280
     0
281
     0
  0
CLASS
  1
AEC_DISP_REP_WINDOW_ASSEMBLY_MODEL
  2
AecDbDispRepWindowAssemblyModel
  3
AecArchBase60
 90
      129
 91
        4
280
     0
281
     0
  0
CLASS
  1
AEC_DISP_REP_WINDOW_ASSEMBLY_PLAN
  2
AecDbDispRepWindowAssemblyPlan
  3
AecArchBase60
 90
      129
 91
        6
280
     0
281
     0
  0
CLASS
  1
AEC_DISP_REP_WINDOWASSEMBLY_SILL_PLAN
  2
AecDbDispRepWindowAssemblySillPlan
  3
AecArchBase60
 90
      129
 91
        4
280
     0
281
     0
  0
CLASS
  1
AEC_DISP_PROPS_WINDOW_ASSEMBLY_SILL_PLAN
  2
AecDbDispPropsWindowAssemblySillPlan
  3
AecArchBase60
 90
      129
 91
        4
280
     0
281
     0
  0
CLASS
  1
AEC_AECDBDISPREPWINDOWASSEMBLYPLAN100
  2
AecDbDispRepWindowAssemblyPlan100
  3
AecBase60
 90
      129
 91
        4
280
     0
281
     0
  0
CLASS
  1
AEC_AECDBDISPREPWINDOWASSEMBLYPLAN50
  2
AecDbDispRepWindowAssemblyPlan50
  3
AecBase60
 90
      129
 91
        4
280
     0
281
     0
  0
CLASS
  1
AEC_DB_DISP_REP_DIM_GROUP_PLAN
  2
AecDbDispRepDimGroupPlan
  3
AecArchDACHBase60
 90
      129
 91
        4
280
     0
281
     0
  0
CLASS
  1
AEC_DISP_PROPS_DIM
  2
AecDbDispPropsDimGroup
  3
AecArchDACHBase60
 90
      129
 91
        4
280
     0
281
     0
  0
CLASS
  1
AEC_DB_DISP_REP_DIM_GROUP_PLAN100
  2
AecDbDispRepDimGroupPlan100
  3
AecArchDACHBase60
 90
      129
 91
        4
280
     0
281
     0
  0
CLASS
  1
AEC_DB_DISP_REP_DIM_GROUP_PLAN50
  2
AecDbDispRepDimGroupPlan50
  3
AecArchDACHBase60
 90
      129
 91
        4
280
     0
281
     0
  0
CLASS
  1
AEC_DISP_REP_SCHEDULE_TABLE
  2
AecDbDispRepScheduleTable
  3
AecSchedule50
 90
      129
 91
        4
280
     0
281
     0
  0
CLASS
  1
AEC_DISP_PROPS_SCHEDULE_TABLE
  2
AecDbDispPropsScheduleTable
  3
AecSchedule50
 90
      129
 91
        4
280
     0
281
     0
  0
CLASS
  1
AEC_DISP_REP_ANCHOR_TAG_TO_ENT
  2
AecDbDispRepAnchorTagToEnt
  3
AecScheduleData60
 90
      129
 91
        5
280
     0
281
     0
  0
CLASS
  1
AEC_DISP_REP_ANCHOR_EXT_TAG_TO_ENT
  2
AecDbDispRepAnchorExtendedTagToEnt
  3
AecScheduleData60
 90
      129
 91
        4
280
     0
281
     0
  0
CLASS
  1
AEC_DISP_REP_SET
  2
AecDbDispRepSet
  3
AecBase60
 90
      129
 91
        4
280
     0
281
     0
  0
CLASS
  1
AECS_DISP_REP_MEMBER_MODEL_DESIGN
  2
AecsDbDispRepMemberModelDesign
  3
AecStructureBase60
 90
      129
 91
        4
280
     0
281
     0
  0
CLASS
  1
AECS_DISP_PROPS_MEMBER
  2
AecsDbDispPropsMember
  3
AecStructureBase60
 90
      129
 91
        6
280
     0
281
     0
  0
CLASS
  1
AECS_DISP_REP_MEMBER_PLAN_DESIGN
  2
AecsDbDispRepMemberPlanDesign
  3
AecStructureBase60
 90
      129
 91
        4
280
     0
281
     0
  0
CLASS
  1
AECS_DISP_PROPS_MEMBER_PLAN
  2
AecsDbDispPropsMemberPlan
  3
AecStructureBase60
 90
      129
 91
        5
280
     0
281
     0
  0
CLASS
  1
AEC_DISP_REP_CONFIG
  2
AecDbDispRepConfig
  3
AecBase60
 90
      129
 91
        4
280
     0
281
     0
  0
CLASS
  1
MLEADERSTYLE
  2
AcDbMLeaderStyle
  3
ACDB_MLEADERSTYLE_CLASS
 90
     4095
 91
        4
280
     0
281
     0
  0
CLASS
  1
GEODATA
  2
AcDbGeoData
  3
ObjectDBX Classes
 90
     4095
 91
        4
280
     0
281
     0
  0
CLASS
  1
AEC_WALL_STYLE
  2
AecDbWallStyle
  3
AecArchBase60
 90
      129
 91
        4
280
     0
281
     0
  0
CLASS
  1
AEC_CLEANUP_GROUP_DEF
  2
AecDbCleanupGroupDef
  3
AecArchBase60
 90
      129
 91
        4
280
     0
281
     0
  0
CLASS
  1
AEC_ENDCAP_STYLE
  2
AecDbEndcapStyle
  3
AecArchBase60
 90
      129
 91
        4
280
     0
281
     0
  0
CLASS
  1
AEC_FRAME_DEF
  2
AecDbOpeningEndcapStyle
  3
AecArchBase60
 90
      129
 91
        4
280
     0
281
     0
  0
CLASS
  1
AEC_MATERIAL_DEF
  2
AecDbMaterialDef
  3
AecBase60
 90
      129
 91
        4
280
     0
281
     0
  0
CLASS
  1
TABLESTYLE
  2
AcDbTableStyle
  3
ObjectDBX Classes
 90
     4095
 91
        4
280
     0
281
     0
  0
CLASS
  1
TCOPTIONALDATA
  2
TcOptionalData
  3
ExTcadCustObjs|Description: TurboCAD extension data object
 90
     4095
 91
        4
280
     0
281
     0
  0
CLASS
  1
SCALE
  2
AcDbScale
  3
ObjectDBX Classes
 90
     1153
 91
        4
280
     0
281
     0
  0
CLASS
  1
DICTIONARYVAR
  2
AcDbDictionaryVar
  3
ObjectDBX Classes
 90
        0
 91
        4
280
     0
281
     0
  0
CLASS
  1
CELLSTYLEMAP
  2
AcDbCellStyleMap
  3
ObjectDBX Classes
 90
     1152
 91
        4
280
     0
281
     0
  0
ENDSEC
  0
SECTION
  2
TABLES
  0
TABLE
  2
VPORT
  5
8
330
0
100
AcDbSymbolTable
 70
     1
  0
VPORT
  5
29
330
8
100
AcDbSymbolTableRecord
100
AcDbViewportTableRecord
  2
*Active
 70
     0
 10
0.0
 20
0.0
 11
1.0
 21
1.0
 12
0.0
 22
0.0
 13
0.0
 23
0.0
 14
0.5
 24
0.5
 15
0.5
 25
0.5
 16
0.0
 26
0.0
 36
1.0
 17
-9.6223302361239
 27
18.55804099914675
 37
0.0
 40
12.00874532223022
 41
1.792207792207793
 42
50.0
 43
0.0
 44
0.0
 50
0.0
 51
0.0
 71
     0
 72
   100
 73
     1
 74
     3
 75
     0
 76
     0
 77
     0
 78
     0
281
     0
 65
     1
110
0.0
120
0.0
130
0.0
111
1.0
121
0.0
131
0.0
112
0.0
122
1.0
132
0.0
 79
     0
146
0.0
 60
     3
 61
     5
292
     1
282
     1
141
0.0
142
0.0
 63
   250
361
3F
  0
ENDTAB
  0
TABLE
  2
LTYPE
  5
5
330
0
100
AcDbSymbolTable
 70
    21
  0
LTYPE
  5
14
330
5
100
AcDbSymbolTableRecord
100
AcDbLinetypeTableRecord
  2
ByBlock
 70
     0
  3

 72
    65
 73
     0
 40
0.0
  0
LTYPE
  5
15
330
5
100
AcDbSymbolTableRecord
100
AcDbLinetypeTableRecord
  2
ByLayer
 70
     0
  3

 72
    65
 73
     0
 40
0.0
  0
LTYPE
  5
16
330
5
100
AcDbSymbolTableRecord
100
AcDbLinetypeTableRecord
  2
Continuous
 70
     0
  3
Solid line
 72
    65
 73
     0
 40
0.0
  0
LTYPE
  5
155
330
5
100
AcDbSymbolTableRecord
100
AcDbLinetypeTableRecord
  2
BORDER
 70
     0
  3
BORDER
 72
    65
 73
     6
 40
1.75
 49
0.5
 74
     0
 49
-0.25
 74
     0
 49
0.5
 74
     0
 49
-0.25
 74
     0
 49
0.0
 74
     0
 49
-0.25
 74
     0
  0
LTYPE
  5
156
330
5
100
AcDbSymbolTableRecord
100
AcDbLinetypeTableRecord
  2
CENTER
 70
     0
  3
CENTER
 72
    65
 73
     4
 40
2.0
 49
1.25
 74
     0
 49
-0.25
 74
     0
 49
0.25
 74
     0
 49
-0.25
 74
     0
  0
LTYPE
  5
157
330
5
100
AcDbSymbolTableRecord
100
AcDbLinetypeTableRecord
  2
DASHDOT
 70
     0
  3
DASHDOT
 72
    65
 73
     4
 40
1.0
 49
0.5
 74
     0
 49
-0.25
 74
     0
 49
0.0
 74
     0
 49
-0.25
 74
     0
  0
LTYPE
  5
158
330
5
100
AcDbSymbolTableRecord
100
AcDbLinetypeTableRecord
  2
DASHED
 70
     0
  3
DASHED
 72
    65
 73
     2
 40
0.75
 49
0.5
 74
     0
 49
-0.25
 74
     0
  0
LTYPE
  5
159
330
5
100
AcDbSymbolTableRecord
100
AcDbLinetypeTableRecord
  2
DIVIDE
 70
     0
  3
DIVIDE
 72
    65
 73
     6
 40
1.25
 49
0.5
 74
     0
 49
-0.25
 74
     0
 49
0.0
 74
     0
 49
-0.25
 74
     0
 49
0.0
 74
     0
 49
-0.25
 74
     0
  0
LTYPE
  5
15A
330
5
100
AcDbSymbolTableRecord
100
AcDbLinetypeTableRecord
  2
DOT
 70
     0
  3
DOT
 72
    65
 73
     2
 40
0.25
 49
0.0
 74
     0
 49
-0.25
 74
     0
  0
LTYPE
  5
15B
330
5
100
AcDbSymbolTableRecord
100
AcDbLinetypeTableRecord
  2
HIDDEN
 70
     0
  3
HIDDEN
 72
    65
 73
     2
 40
0.375
 49
0.25
 74
     0
 49
-0.125
 74
     0
  0
LTYPE
  5
15C
330
5
100
AcDbSymbolTableRecord
100
AcDbLinetypeTableRecord
  2
PHANTOM
 70
     0
  3
PHANTOM
 72
    65
 73
     6
 40
2.5
 49
1.25
 74
     0
 49
-0.25
 74
     0
 49
0.25
 74
     0
 49
-0.25
 74
     0
 49
0.25
 74
     0
 49
-0.25
 74
     0
  0
LTYPE
  5
15D
330
5
100
AcDbSymbolTableRecord
100
AcDbLinetypeTableRecord
  2
$INVISIBLE
 70
     0
  3
$INVISIBLE
 72
    65
 73
     2
 40
200.0
 49
-100.0
 74
     0
 49
-100.0
 74
     0
  0
LTYPE
  5
15E
330
5
100
AcDbSymbolTableRecord
100
AcDbLinetypeTableRecord
  2
Strich_2_1mm
 70
     0
  3
Strich_2_1mm
 72
    65
 73
     2
 40
0.115
 49
0.075
 74
     0
 49
-0.04
 74
     0
  0
LTYPE
  5
15F
330
5
100
AcDbSymbolTableRecord
100
AcDbLinetypeTableRecord
  2
Achse
 70
     0
  3
Achse
 72
    65
 73
     4
 40
0.115
 49
0.0
 74
     0
 49
-0.04
 74
     0
 49
0.075
 74
     0
 49
0.0
 74
     0
  0
LTYPE
  5
160
330
5
100
AcDbSymbolTableRecord
100
AcDbLinetypeTableRecord
  2
Punkt_1mm
 70
     0
  3
Punkt_1mm
 72
    65
 73
     2
 40
0.05
 49
0.0
 74
     0
 49
-0.05
 74
     0
  0
LTYPE
  5
161
330
5
100
AcDbSymbolTableRecord
100
AcDbLinetypeTableRecord
  2
Kreuz-Strich_1
 70
     0
  3
Kreuz-Strich_1
 72
    65
 73
     3
 40
0.25
 49
0.0
 74
     0
 49
-0.25
 74
     0
 49
0.0
 74
     0
  0
LTYPE
  5
162
330
5
100
AcDbSymbolTableRecord
100
AcDbLinetypeTableRecord
  2
Strichpunkt_3_1_1mm_Achsen
 70
     0
  3
Strichpunkt_3_1_1mm_Achsen
 72
    65
 73
     4
 40
0.22
 49
0.125
 74
     0
 49
-0.04
 74
     0
 49
0.015
 74
     0
 49
-0.04
 74
     0
  0
LTYPE
  5
163
330
5
100
AcDbSymbolTableRecord
100
AcDbLinetypeTableRecord
  2
STRICHPUNKT
 70
     0
  3
STRICHPUNKT
 72
    65
 73
     4
 40
12.7
 49
6.35
 74
     0
 49
-3.174999999999999
 74
     0
 49
0.0
 74
     0
 49
-3.175000000000001
 74
     0
  0
LTYPE
  5
164
330
5
100
AcDbSymbolTableRecord
100
AcDbLinetypeTableRecord
  2
VERDECKT
 70
     0
  3
VERDECKT
 72
    65
 73
     2
 40
4.762499999999999
 49
3.175
 74
     0
 49
-1.587499999999999
 74
     0
  0
LTYPE
  5
165
330
5
100
AcDbSymbolTableRecord
100
AcDbLinetypeTableRecord
  2
$SNAPEXT
 70
     0
  3
$SNAPEXT
 72
    65
 73
     2
 40
0.04
 49
0.02
 74
     0
 49
-0.02
 74
     0
  0
LTYPE
  5
166
330
5
100
AcDbSymbolTableRecord
100
AcDbLinetypeTableRecord
  2
$CONSTRUCTION
 70
     0
  3
$CONSTRUCTION
 72
    65
 73
     4
 40
0.3
 49
0.2
 74
     0
 49
-0.05
 74
     0
 49
0.0
 74
     0
 49
-0.05
 74
     0
  0
LTYPE
  5
167
330
5
100
AcDbSymbolTableRecord
100
AcDbLinetypeTableRecord
  2
$AUXILIARY
 70
     0
  3
$AUXILIARY
 72
    65
 73
     2
 40
0.1
 49
0.05
 74
     0
 49
-0.05
 74
     0
  0
LTYPE
  5
168
330
5
100
AcDbSymbolTableRecord
100
AcDbLinetypeTableRecord
  2
$DYNDIMDOT
 70
     0
  3
$DYNDIMDOT
 72
    65
 73
     2
 40
0.05
 49
0.0
 74
     0
 49
-0.05
 74
     0
  0
ENDTAB
  0
TABLE
  2
LAYER
  5
2
330
0
100
AcDbSymbolTable
 70
    16
  0
LAYER
  5
10
330
2
100
AcDbSymbolTableRecord
100
AcDbLayerTableRecord
  2
0
 70
     0
 62
     7
  6
Continuous
370
     0
390
F
347
3E
  0
LAYER
  5
169
330
2
100
AcDbSymbolTableRecord
100
AcDbLayerTableRecord
  2
0_WP_Plankopf_1_50_(AaA)
 70
     0
 62
     7
  6
Continuous
370
     0
390
F
347
3E
  0
LAYER
  5
16A
330
2
100
AcDbSymbolTableRecord
100
AcDbLayerTableRecord
  2
0_WP_Schraffuren_Tabuzonen_Ing
 70
     0
 62
     7
  6
Continuous
370
     0
390
F
347
3E
  0
LAYER
  5
16B
330
2
100
AcDbSymbolTableRecord
100
AcDbLayerTableRecord
  2
01_Raumstempel_Kontur
 70
     0
 62
     7
  6
Continuous
370
     0
390
F
347
3E
  0
LAYER
  5
16C
330
2
100
AcDbSymbolTableRecord
100
AcDbLayerTableRecord
  2
01_Raumstempel_Textrahmen
 70
     0
 62
     7
  6
Continuous
370
     0
390
F
347
3E
  0
LAYER
  5
16D
330
2
100
AcDbSymbolTableRecord
100
AcDbLayerTableRecord
  2
01_Raumstempel_Text
 70
     0
 62
     7
  6
Continuous
370
     0
390
F
347
3E
  0
LAYER
  5
16E
330
2
100
AcDbSymbolTableRecord
100
AcDbLayerTableRecord
  2
01_Raumstempel
 70
     0
 62
     7
  6
Continuous
370
     0
390
F
347
3E
  0
LAYER
  5
16F
330
2
100
AcDbSymbolTableRecord
100
AcDbLayerTableRecord
  2
0_WP_Schraffuren_Materialangaben
 70
     0
 62
     7
  6
Continuous
370
     0
390
F
347
3E
  0
LAYER
  5
170
330
2
100
AcDbSymbolTableRecord
100
AcDbLayerTableRecord
  2
0_Linien
 70
     0
 62
     7
  6
Continuous
370
     0
390
F
347
3E
  0
LAYER
  5
171
330
2
100
AcDbSymbolTableRecord
100
AcDbLayerTableRecord
  2
01_Linien
 70
     0
 62
     7
  6
Continuous
370
     0
390
F
347
3E
  0
LAYER
  5
172
330
2
100
AcDbSymbolTableRecord
100
AcDbLayerTableRecord
  2
0_WP_4B-Detail
 70
     0
 62
     7
  6
Continuous
370
     0
390
F
347
3E
  0
LAYER
  5
173
330
2
100
AcDbSymbolTableRecord
100
AcDbLayerTableRecord
  2
0_WP_4B-Reduziert
 70
     0
 62
     7
  6
Continuous
370
     0
390
F
347
3E
  0
LAYER
  5
174
330
2
100
AcDbSymbolTableRecord
100
AcDbLayerTableRecord
  2
00_Höhenlinien_gwp_gedreht
 70
     0
 62
     7
  6
Continuous
370
     0
390
F
347
3E
  0
LAYER
  5
175
330
2
100
AcDbSymbolTableRecord
100
AcDbLayerTableRecord
  2
0_WP_BEMASSUNG_1_50
 70
     0
 62
     7
  6
Continuous
370
     0
390
F
347
3E
  0
LAYER
  5
176
330
2
100
AcDbSymbolTableRecord
100
AcDbLayerTableRecord
  2
11_Linien
 70
     0
 62
     7
  6
Continuous
370
     0
390
F
347
3E
  0
LAYER
  5
177
330
2
100
AcDbSymbolTableRecord
100
AcDbLayerTableRecord
  2
Defpoints
 70
     0
 62
     7
  6
Continuous
290
     0
370
     0
390
F
347
3E
  0
ENDTAB
  0
TABLE
  2
STYLE
  5
3
330
0
100
AcDbSymbolTable
 70
     8
  0
STYLE
  5
11
330
3
100
AcDbSymbolTableRecord
100
AcDbTextStyleTableRecord
  2
Standard
 70
     0
 40
0.0
 41
1.0
 50
0.0
 71
     0
 42
0.2000000327825546
  3
TXT.SHX
  4

  0
STYLE
  5
179
330
3
100
AcDbSymbolTableRecord
100
AcDbTextStyleTableRecord
  2
ERSTELLTER_STIL_1
 70
     0
 40
0.0
 41
1.0
 50
0.0
 71
     0
 42
0.2000000029802322
  3

  4

1001
ACAD
1000
Swis721 BT
1071
       34
  0
STYLE
  5
17A
330
3
100
AcDbSymbolTableRecord
100
AcDbTextStyleTableRecord
  2
ERSTELLTER_STIL_2
 70
     0
 40
0.0
 41
1.0
 50
0.0
 71
     0
 42
0.2000000178813934
  3

  4

1001
ACAD
1000
Arial
1071
 33554466
  0
STYLE
  5
17B
330
3
100
AcDbSymbolTableRecord
100
AcDbTextStyleTableRecord
  2
ERSTELLTER_STIL_3
 70
     0
 40
0.0
 41
1.0
 50
0.0
 71
     0
 42
0.2000000178813934
  3

  4

1001
ACAD
1000
Arial
1071
       34
  0
STYLE
  5
17C
330
3
100
AcDbSymbolTableRecord
100
AcDbTextStyleTableRecord
  2
ERSTELLTER_STIL_4
 70
     0
 40
0.0
 41
0.8399999737739563
 50
0.0
 71
     0
 42
0.2000000178813934
  3

  4

1001
ACAD
1000
Arial
1071
 33554466
  0
STYLE
  5
17D
330
3
100
AcDbSymbolTableRecord
100
AcDbTextStyleTableRecord
  2
ERSTELLTER_STIL_5
 70
     0
 40
0.0
 41
0.8399999737739563
 50
0.0
 71
     0
 42
0.2000000178813934
  3

  4

1001
ACAD
1000
Arial
1071
       34
  0
STYLE
  5
17E
330
3
100
AcDbSymbolTableRecord
100
AcDbTextStyleTableRecord
  2
LTypeShapes_1
 70
     0
 40
0.1999999731779099
 41
1.0
 50
0.0
 71
     0
 42
0.1999999731779099
  3
AAA-PWP-GR-EG-202005051.SHX
  4

  0
STYLE
  5
17F
330
3
100
AcDbSymbolTableRecord
100
AcDbTextStyleTableRecord
  2
ERSTELLTER_STIL_6
 70
     0
 40
0.0
 41
1.0
 50
0.0
 71
     0
 42
0.2000000029802322
  3

  4

1001
ACAD
1000
Swis721 BT
1071
       34
  0
ENDTAB
  0
TABLE
  2
VIEW
  5
6
330
0
100
AcDbSymbolTable
 70
     1
  0
VIEW
  5
178
330
6
100
AcDbSymbolTableRecord
100
AcDbViewTableRecord
  2
View_0
 70
     0
 40
8.267716535433072
 10
5.846456692913386
 20
4.133858267716536
 41
11.69291338582677
 11
0.0
 21
0.0
 31
1.0
 12
0.0
 22
0.0
 32
0.0
 42
50.0
 43
0.0
 44
0.0
 50
0.0
 71
     0
281
     0
 72
     0
 73
     0
  0
ENDTAB
  0
TABLE
  2
UCS
  5
7
330
0
100
AcDbSymbolTable
 70
     0
  0
ENDTAB
  0
TABLE
  2
APPID
  5
9
330
0
100
AcDbSymbolTable
 70
     6
  0
APPID
  5
12
330
9
100
AcDbSymbolTableRecord
100
AcDbRegAppTableRecord
  2
ACAD
 70
     0
  0
APPID
  5
40
330
9
100
AcDbSymbolTableRecord
100
AcDbRegAppTableRecord
  2
TCAD
 70
     0
  0
APPID
  5
194
330
9
100
AcDbSymbolTableRecord
100
AcDbRegAppTableRecord
  2
ACAD_MLEADERVER
 70
     0
  0
ENDTAB
  0
TABLE
  2
DIMSTYLE
  5
A
330
0
100
AcDbSymbolTable
 70
    10
100
AcDbDimStyleTable
  0
DIMSTYLE
105
27
330
A
100
AcDbSymbolTableRecord
100
AcDbDimStyleTableRecord
  2
Standard
 70
     0
  4
^B2147483648l^B^B2147483648l^B
178
     0
340
11
345
14
346
14
347
14
  0
DIMSTYLE
105
180
102
{ACAD_REACTORS
330
425
330
446
102
}
330
A
100
AcDbSymbolTableRecord
100
AcDbDimStyleTableRecord
  2
ERSTELLTER_STIL__1
 70
     0
  4
^B2147483648l^B^B2147483648l^B
 41
0.095
 42
0.1
 73
     0
 74
     0
 77
     1
140
0.1100000023841858
172
     1
176
     7
177
     7
271
     2
178
     7
179
     2
271
     2
288
     1
340
17B
341
181
342
181
343
181
344
181
345
14
346
14
347
14
  0
DIMSTYLE
105
184
330
A
100
AcDbSymbolTableRecord
100
AcDbDimStyleTableRecord
  2
ERSTELLTER_STIL__2
 70
     0
  4
^B2147483648l^B^B2147483648l^B
 41
0.095
 42
0.1
 73
     0
 74
     0
 77
     1
140
0.1100000023841858
172
     1
176
     7
177
     7
271
     2
178
     7
179
     2
271
     2
279
     2
288
     1
340
17B
341
181
342
181
343
181
344
181
345
14
346
14
347
14
  0
DIMSTYLE
105
185
330
A
100
AcDbSymbolTableRecord
100
AcDbDimStyleTableRecord
  2
ERSTELLTER_STIL__3
 70
     0
  4
^B2147483648l^B^B2147483648l^B
 41
0.095
 42
0.1
 73
     0
 74
     0
 77
     1
140
0.1100000023841858
172
     1
176
     5
177
     5
271
     2
178
     5
179
     2
271
     2
288
     1
340
17B
341
181
342
181
343
181
344
181
345
14
346
14
347
14
  0
DIMSTYLE
105
186
330
A
100
AcDbSymbolTableRecord
100
AcDbDimStyleTableRecord
  2
ERSTELLTER_STIL__4
 70
     0
  4
^B2147483648l^B^B2147483648l^B
 41
0.095
 42
0.1
 77
     1
140
0.1100000023841858
172
     1
176
     7
177
     7
271
     2
178
     7
179
     2
271
     2
288
     1
340
17B
341
181
342
181
343
181
344
181
345
14
346
14
347
14
  0
DIMSTYLE
105
187
330
A
100
AcDbSymbolTableRecord
100
AcDbDimStyleTableRecord
  2
ERSTELLTER_STIL__5
 70
     0
  4
^B2147483648l^B^B2147483648l^B
 41
0.095
 42
0.1
 77
     1
140
0.1100000023841858
172
     1
176
     5
177
     5
271
     2
178
     5
179
     2
271
     2
288
     1
340
17B
341
181
342
181
343
181
344
181
345
14
346
14
347
14
  0
DIMSTYLE
105
188
102
{ACAD_REACTORS
330
437
102
}
330
A
100
AcDbSymbolTableRecord
100
AcDbDimStyleTableRecord
  2
ERSTELLTER_STIL__6
 70
     0
  4
^B2147483648l^B^B2147483648l^B
 41
0.095
 42
0.1
 77
     1
140
0.1100000023841858
172
     1
176
     7
177
     7
271
     2
178
     7
179
     2
271
     2
279
     2
288
     1
340
17B
341
181
342
181
343
181
344
181
345
14
346
14
347
14
  0
DIMSTYLE
105
189
330
A
100
AcDbSymbolTableRecord
100
AcDbDimStyleTableRecord
  2
ERSTELLTER_STIL__7
 70
     0
  4
^B2147483648l^B^B2147483648l^B
 41
0.095
 42
0.1
 77
     1
140
0.1100000023841858
172
     1
176
     7
177
     7
271
     2
178
     6
179
     2
271
     2
279
     2
288
     1
340
17B
341
181
342
181
343
181
344
181
345
14
346
14
347
14
  0
DIMSTYLE
105
18A
330
A
100
AcDbSymbolTableRecord
100
AcDbDimStyleTableRecord
  2
ERSTELLTER_STIL__8
 70
     0
  4
^B2147483648l^B^B2147483648l^B
 41
0.0912
172
     1
178
     0
340
11
341
18B
345
14
346
14
347
14
  0
DIMSTYLE
105
18E
330
A
100
AcDbSymbolTableRecord
100
AcDbDimStyleTableRecord
  2
ERSTELLTER_STIL__9
 70
     0
  4
^B2147483648l^B^B2147483648l^B
 41
0.114
172
     1
178
     0
340
11
341
18F
345
14
346
14
347
14
  0
ENDTAB
  0
TABLE
  2
BLOCK_RECORD
  5
1
330
0
100
AcDbSymbolTable
 70
    22
  0
BLOCK_RECORD
  5
1F
102
{ACAD_XDICTIONARY
360
195
102
}
330
1
100
AcDbSymbolTableRecord
100
AcDbBlockTableRecord
  2
*Model_Space
340
22
 70
     0
280
     1
281
     0
  0
BLOCK_RECORD
  5
1B
330
1
100
AcDbSymbolTableRecord
100
AcDbBlockTableRecord
  2
*Paper_Space
340
1E
 70
     0
280
     1
281
     0
  0
BLOCK_RECORD
  5
151
330
1
100
AcDbSymbolTableRecord
100
AcDbBlockTableRecord
  2
*Paper_Space2
340
152
 70
     0
280
     1
281
     0
  0
BLOCK_RECORD
  5
181
330
1
100
AcDbSymbolTableRecord
100
AcDbBlockTableRecord
  2
ARROWHEAD_6
340
0
102
{BLKREFS
331
431
331
432
331
440
331
441
331
44F
331
450
102
}
 70
     0
280
     1
281
     0
  0
BLOCK_RECORD
  5
18B
330
1
100
AcDbSymbolTableRecord
100
AcDbBlockTableRecord
  2
ARROWHEAD_12
340
0
 70
     0
280
     1
281
     0
  0
BLOCK_RECORD
  5
18F
330
1
100
AcDbSymbolTableRecord
100
AcDbBlockTableRecord
  2
ARROWHEAD_10
340
0
 70
     0
280
     1
281
     0
  0
BLOCK_RECORD
  5
1AC
330
1
100
AcDbSymbolTableRecord
100
AcDbBlockTableRecord
  2
_X1
340
0
 70
     0
280
     1
281
     0
  0
BLOCK_RECORD
  5
1AE
330
1
100
AcDbSymbolTableRecord
100
AcDbBlockTableRecord
  2
Fitnessraum_EG-04_1
340
0
 70
     0
280
     1
281
     0
  0
BLOCK_RECORD
  5
1D7
330
1
100
AcDbSymbolTableRecord
100
AcDbBlockTableRecord
  2
Büro_EG-03_2
340
0
 70
     0
280
     1
281
     0
  0
BLOCK_RECORD
  5
200
330
1
100
AcDbSymbolTableRecord
100
AcDbBlockTableRecord
  2
Basteln_EG-10_3
340
0
 70
     0
280
     1
281
     0
  0
BLOCK_RECORD
  5
229
330
1
100
AcDbSymbolTableRecord
100
AcDbBlockTableRecord
  2
Wohnen_EG-02_4
340
0
 70
     0
280
     1
281
     0
  0
BLOCK_RECORD
  5
252
330
1
100
AcDbSymbolTableRecord
100
AcDbBlockTableRecord
  2
Küche___Essen_EG-01_5
340
0
 70
     0
280
     1
281
     0
  0
BLOCK_RECORD
  5
27B
330
1
100
AcDbSymbolTableRecord
100
AcDbBlockTableRecord
  2
Nähen_EG-11_6
340
0
 70
     0
280
     1
281
     0
  0
BLOCK_RECORD
  5
2A4
330
1
100
AcDbSymbolTableRecord
100
AcDbBlockTableRecord
  2
Gästetoil._EG-05_7
340
0
102
{BLKREFS
331
37D
102
}
 70
     0
280
     1
281
     0
  0
BLOCK_RECORD
  5
2CD
330
1
100
AcDbSymbolTableRecord
100
AcDbBlockTableRecord
  2
Reduit_EG-06_8
340
0
 70
     0
280
     1
281
     0
  0
BLOCK_RECORD
  5
2F6
330
1
100
AcDbSymbolTableRecord
100
AcDbBlockTableRecord
  2
Entrée_EG-09_9
340
0
 70
     0
280
     1
281
     0
  0
BLOCK_RECORD
  5
31F
330
1
100
AcDbSymbolTableRecord
100
AcDbBlockTableRecord
  2
Vorraum_EG-07_10
340
0
 70
     0
280
     1
281
     0
  0
BLOCK_RECORD
  5
348
330
1
100
AcDbSymbolTableRecord
100
AcDbBlockTableRecord
  2
Waschen_EG-08_11
340
0
 70
     0
280
     1
281
     0
  0
BLOCK_RECORD
  5
371
330
1
100
AcDbSymbolTableRecord
100
AcDbBlockTableRecord
  2
Lift_EG-02_12
340
0
 70
     0
280
     1
281
     0
  0
BLOCK_RECORD
  5
428
330
1
100
AcDbSymbolTableRecord
100
AcDbBlockTableRecord
  2
*D19
340
0
 70
     0
280
     1
281
     0
  0
BLOCK_RECORD
  5
43A
330
1
100
AcDbSymbolTableRecord
100
AcDbBlockTableRecord
  2
*D20
340
0
 70
     0
280
     1
281
     0
  0
BLOCK_RECORD
  5
449
330
1
100
AcDbSymbolTableRecord
100
AcDbBlockTableRecord
  2
*D21
340
0
 70
     0
280
     1
281
     0
  0
ENDTAB
  0
ENDSEC
  0
SECTION
  2
BLOCKS
  0
BLOCK
  5
20
330
1F
100
AcDbEntity
  8
0
100
AcDbBlockBegin
  2
*Model_Space
 70
     0
 10
0.0
 20
0.0
 30
0.0
  3
*Model_Space
  1

  0
ENDBLK
  5
21
330
1F
100
AcDbEntity
  8
0
100
AcDbBlockEnd
  0
BLOCK
  5
1C
330
1B
100
AcDbEntity
 67
     1
  8
0
100
AcDbBlockBegin
  2
*Paper_Space
 70
     0
 10
0.0
 20
0.0
 30
0.0
  3
*Paper_Space
  1

  0
ENDBLK
  5
1D
330
1B
100
AcDbEntity
 67
     1
  8
0
100
AcDbBlockEnd
  0
BLOCK
  5
153
330
151
100
AcDbEntity
  8
0
100
AcDbBlockBegin
  2
*Paper_Space2
 70
     0
 10
0.0
 20
0.0
 30
0.0
  3
*Paper_Space2
  1

  0
VIEWPORT
  5
476
330
151
100
AcDbEntity
  8
0
100
AcDbViewport
 10
-19.21922631916005
 20
11.97234041614391
 30
0.0
 40
65.17935329916519
 41
40.42448718479235
 68
     1
 69
     1
 12
-19.21922631916005
 22
11.97234041614391
 13
0.0
 23
0.0
 14
0.5
 24
0.5
 15
0.5
 25
0.5
 16
0.0
 26
0.0
 36
1.0
 17
0.0
 27
0.0
 37
0.0
 42
50.0
 43
0.0
 44
0.0
 45
40.42448718479235
 50
0.0
 51
0.0
 72
  1000
 90
    32800
  1

281
     0
 71
     1
 74
     0
110
0.0
120
0.0
130
0.0
111
1.0
121
0.0
131
0.0
112
0.0
122
1.0
132
0.0
 79
     0
146
0.0
170
     0
 61
     5
292
     1
282
     1
141
0.0
142
0.0
 63
   256
  0
ENDBLK
  5
154
330
151
100
AcDbEntity
  8
0
100
AcDbBlockEnd
  0
BLOCK
  5
182
330
181
100
AcDbEntity
  8
0
100
AcDbBlockBegin
  2
ARROWHEAD_6
 70
     0
 10
0.0
 20
0.0
 30
0.0
  3
ARROWHEAD_6
  1

  0
LINE
  5
1A3
330
181
100
AcDbEntity
  8
0
  6
Continuous
 62
     0
370
     0
100
AcDbLine
 10
-0.5
 20
-0.5
 30
0.0
 11
0.5
 21
0.5
 31
0.0
  0
LINE
  5
1A4
330
181
100
AcDbEntity
  8
0
  6
Continuous
 62
     0
370
     0
100
AcDbLine
 10
0.0
 20
0.0
 30
0.0
 11
-1.0
 21
0.0
 31
0.0
  0
ENDBLK
  5
183
330
181
100
AcDbEntity
  8
0
100
AcDbBlockEnd
  0
BLOCK
  5
18C
330
18B
100
AcDbEntity
  8
0
100
AcDbBlockBegin
  2
ARROWHEAD_12
 70
     0
 10
0.0
 20
0.0
 30
0.0
  3
ARROWHEAD_12
  1

  0
CIRCLE
  5
1A5
330
18B
100
AcDbEntity
  8
0
  6
Continuous
 62
     0
370
     0
100
AcDbCircle
 10
0.0
 20
0.0
 30
0.0
 40
0.25
  0
LWPOLYLINE
  5
1A6
330
18B
100
AcDbEntity
  8
0
  6
Continuous
 62
     0
370
   211
100
AcDbPolyline
 90
        2
 70
   128
 43
0.25
 10
-0.125
 20
0.0
 42
0.4142135623730951
 10
0.0
 20
-0.125
  0
LWPOLYLINE
  5
1A7
330
18B
100
AcDbEntity
  8
0
  6
Continuous
 62
     0
370
   211
100
AcDbPolyline
 90
        2
 70
   128
 43
0.25
 10
0.125
 20
0.0
 42
0.4142135623730951
 10
0.0
 20
0.125
  0
LINE
  5
1A8
330
18B
100
AcDbEntity
  8
0
  6
Continuous
 62
     0
370
     0
100
AcDbLine
 10
0.0
 20
0.0
 30
0.0
 11
-1.0
 21
0.0
 31
0.0
  0
ENDBLK
  5
18D
330
18B
100
AcDbEntity
  8
0
100
AcDbBlockEnd
  0
BLOCK
  5
190
330
18F
100
AcDbEntity
  8
0
100
AcDbBlockBegin
  2
ARROWHEAD_10
 70
     0
 10
0.0
 20
0.0
 30
0.0
  3
ARROWHEAD_10
  1

  0
LWPOLYLINE
  5
1A9
102
{ACAD_REACTORS
330
1AA
102
}
330
18F
100
AcDbEntity
  8
0
  6
Continuous
 62
     0
370
     0
100
AcDbPolyline
 90
        4
 70
   129
 43
0.0
 10
-0.525
 20
0.525
 10
0.0
 20
0.0
 10
-0.525
 20
-0.525
 10
-0.525
 20
-0.525
  0
HATCH
  5
1AA
330
18F
100
AcDbEntity
  8
0
  6
Continuous
 62
     0
370
     0
100
AcDbHatch
 10
0.0
 20
0.0
 30
0.0
210
0.0
220
0.0
230
1.0
  2
SOLID
 70
     1
 71
     1
 91
        1
 92
        1
 93
        4
 72
     1
 10
-0.525
 20
0.525
 11
0.0
 21
0.0
 72
     1
 10
0.0
 20
0.0
 11
-0.525
 21
-0.525
 72
     1
 10
-0.525
 20
-0.525
 11
-0.525
 21
-0.525
 72
     1
 10
-0.525
 20
-0.525
 11
-0.525
 21
0.525
 97
        1
330
1A9
 75
     0
 76
     1
 98
        0
  0
LINE
  5
1AB
330
18F
100
AcDbEntity
  8
0
  6
Continuous
 62
     0
370
     0
100
AcDbLine
 10
0.0
 20
0.0
 30
0.0
 11
-1.0
 21
0.0
 31
0.0
  0
ENDBLK
  5
191
330
18F
100
AcDbEntity
  8
0
100
AcDbBlockEnd
  0
BLOCK
  5
1AD
330
1AC
100
AcDbEntity
  8
0
100
AcDbBlockBegin
  2
_X1
 70
     0
 10
0.0
 20
0.0
 30
0.0
  3
_X1
  1

  0
ENDBLK
  5
1B0
330
1AC
100
AcDbEntity
  8
0
100
AcDbBlockEnd
  0
BLOCK
  5
1AF
330
1AE
100
AcDbEntity
  8
0
100
AcDbBlockBegin
  2
Fitnessraum_EG-04_1
 70
     2
 10
-18.93930855223076
 20
19.09444197437467
 30
0.0
  3
Fitnessraum_EG-04_1
  1

  0
LINE
  5
1B1
102
{ACAD_XDICTIONARY
360
1B2
102
}
330
1AE
100
AcDbEntity
  8
01_Raumstempel_Textrahmen
  6
Continuous
100
AcDbLine
 10
-19.55499547834272
 20
18.5730134029461
 30
0.0
 11
-18.3236216261188
 21
18.5730134029461
 31
0.0
  0
LINE
  5
1B4
102
{ACAD_XDICTIONARY
360
1B5
102
}
330
1AE
100
AcDbEntity
  8
01_Raumstempel_Textrahmen
  6
Continuous
100
AcDbLine
 10
-18.3236216261188
 20
18.5730134029461
 30
0.0
 11
-18.3236216261188
 21
18.18015626008895
 31
0.0
  0
LINE
  5
1B7
102
{ACAD_XDICTIONARY
360
1B8
102
}
330
1AE
100
AcDbEntity
  8
01_Raumstempel_Textrahmen
  6
Continuous
100
AcDbLine
 10
-18.3236216261188
 20
18.18015626008895
 30
0.0
 11
-19.55499547834272
 21
18.18015626008895
 31
0.0
  0
LINE
  5
1BA
102
{ACAD_XDICTIONARY
360
1BB
102
}
330
1AE
100
AcDbEntity
  8
01_Raumstempel_Textrahmen
  6
Continuous
100
AcDbLine
 10
-19.55499547834272
 20
18.18015626008895
 30
0.0
 11
-19.55499547834272
 21
18.5730134029461
 31
0.0
  0
LINE
  5
1BD
102
{ACAD_XDICTIONARY
360
1BE
102
}
330
1AE
100
AcDbEntity
  8
01_Raumstempel_Textrahmen
  6
Continuous
100
AcDbLine
 10
-18.72473858784949
 20
18.5730134029461
 30
0.0
 11
-18.72473858784949
 21
18.18015626008895
 31
0.0
  0
LINE
  5
1C0
102
{ACAD_XDICTIONARY
360
1C1
102
}
330
1AE
100
AcDbEntity
  8
01_Raumstempel_Textrahmen
  6
Continuous
100
AcDbLine
 10
-18.72473858784949
 20
18.37658483151753
 30
0.0
 11
-18.3236216261188
 21
18.37658483151753
 31
0.0
  0
ATTDEF
  5
1C3
102
{ACAD_XDICTIONARY
360
1C4
102
}
330
1AE
100
AcDbEntity
  8
01_Raumstempel_Text
  6
Continuous
100
AcDbText
 10
-19.55499547834272
 20
18.86015625644644
 30
0.0
 40
0.1500000036425061
  1
Fitnessraum
  7
ERSTELLTER_STIL_2
 11
-19.55499547834272
 21
19.01015626008895
 31
0.0
100
AcDbAttributeDefinition
  3
Raumname
  2
ROOM_NAME
 70
     0
 74
     3
280
     0
  0
ATTDEF
  5
1C6
102
{ACAD_XDICTIONARY
360
1C7
102
}
330
1AE
100
AcDbEntity
  8
01_Raumstempel_Text
  6
Continuous
100
AcDbText
 10
-19.43713833548558
 20
18.31015625644644
 30
0.0
 40
0.1500000036425061
  1
EG-04
  7
ERSTELLTER_STIL_2
 11
-19.43713833548558
 21
18.46015626008895
 31
0.0
100
AcDbAttributeDefinition
  3
Raumnummer
  2
ROOM_NUMBER
 70
     0
 74
     3
280
     0
  0
ATTDEF
  5
1C9
330
1AE
100
AcDbEntity
  8
01_Raumstempel_Text
  6
Continuous
100
AcDbText
 10
-19.34164721738182
 20
18.62694197834831
 30
0.0
 40
0.099999996026357
  1
26.55
  7
ERSTELLTER_STIL_3
 11
-19.34164721738182
 21
18.72694197437467
 31
0.0
100
AcDbAttributeDefinition
  3
Gemessene Fläche
  2
ROOM_AREA
 70
     0
 74
     3
280
     0
  0
ATTDEF
  5
1CA
330
1AE
100
AcDbEntity
  8
01_Raumstempel_Text
  6
Continuous
100
AcDbText
 10
-18.61018500932325
 20
18.43051340691974
 30
0.0
 40
0.099999996026357
  1
0.00
  7
ERSTELLTER_STIL_3
 11
-18.61018500932325
 21
18.5305134029461
 31
0.0
100
AcDbAttributeDefinition
  3
Gesamtlänge aller Bodenkanten
  2
ROOM_HOLES_PRM
 70
     0
 74
     3
280
     0
  0
ATTDEF
  5
1CB
330
1AE
100
AcDbEntity
  8
01_Raumstempel_Text
  6
Continuous
100
AcDbText
 10
-18.61018500932325
 20
18.23408483549117
 30
0.0
 40
0.099999996026357
  1
0.15
  7
ERSTELLTER_STIL_3
 11
-18.61018500932325
 21
18.33408483151753
 31
0.0
100
AcDbAttributeDefinition
  3

  2
orders_temp
 70
     0
 74
     3
280
     0
  0
ATTDEF
  5
1CC
330
1AE
100
AcDbEntity
  8
01_Raumstempel_Text
  6
Continuous
100
AcDbText
 10
-19.55499547834272
 20
18.0376562640626
 30
0.0
 40
0.099999996026357
  1
B:
  7
ERSTELLTER_STIL_3
 11
-19.55499547834272
 21
18.13765626008896
 31
0.0
100
AcDbAttributeDefinition
  3
Bodenbelag Titel
  2
floor_bez
 70
     0
 74
     3
280
     0
  0
ATTDEF
  5
1CD
330
1AE
100
AcDbEntity
  8
01_Raumstempel_Text
  6
Continuous
100
AcDbText
 10
-19.38992826295877
 20
18.0376562640626
 30
0.0
 40
0.099999996026357
  1
(Würfel-) Parkett
  7
ERSTELLTER_STIL_3
 11
-19.38992826295877
 21
18.13765626008896
 31
0.0
100
AcDbAttributeDefinition
  3
Bodenbelag
  2
floor_f
 70
     0
 74
     3
280
     0
  0
ATTDEF
  5
1CE
330
1AE
100
AcDbEntity
  8
01_Raumstempel_Text
  6
Continuous
100
AcDbText
 10
-19.55499547834272
 20
17.84122769263402
 30
0.0
 40
0.099999996026357
  1
W:
  7
ERSTELLTER_STIL_3
 11
-19.55499547834272
 21
17.94122768866038
 31
0.0
100
AcDbAttributeDefinition
  3
Bezeichnung Wandbelag
  2
wall_bez
 70
     0
 74
     3
280
     0
  0
ATTDEF
  5
1CF
330
1AE
100
AcDbEntity
  8
01_Raumstempel_Text
  6
Continuous
100
AcDbText
 10
-19.38992826295877
 20
17.84122769263402
 30
0.0
 40
0.099999996026357
  1
Weissputz
  7
ERSTELLTER_STIL_3
 11
-19.38992826295877
 21
17.94122768866038
 31
0.0
100
AcDbAttributeDefinition
  3
Wandbelag Material
  2
wall_mat_0
 70
     0
 74
     3
280
     0
  0
ATTDEF
  5
1D0
330
1AE
100
AcDbEntity
  8
01_Raumstempel_Text
  6
Continuous
100
AcDbText
 10
-19.38992826295877
 20
17.64479912120545
 30
0.0
 40
0.099999996026357
  1
Weissputz
  7
ERSTELLTER_STIL_3
 11
-19.38992826295877
 21
17.74479911723181
 31
0.0
100
AcDbAttributeDefinition
  3
Wandbelag Material
  2
wall_mat_1
 70
     0
 74
     3
280
     0
  0
ATTDEF
  5
1D1
330
1AE
100
AcDbEntity
  8
01_Raumstempel_Text
  6
Continuous
100
AcDbText
 10
-19.55499547834272
 20
17.64479912120545
 30
0.0
 40
0.099999996026357
  1
D:
  7
ERSTELLTER_STIL_3
 11
-19.55499547834272
 21
17.74479911723181
 31
0.0
100
AcDbAttributeDefinition
  3
Deckenbelag Titel
  2
ceil_bez
 70
     0
 74
     3
280
     0
  0
ATTDEF
  5
1D2
330
1AE
100
AcDbEntity
  8
01_Raumstempel_Text
  6
Continuous
100
AcDbText
 10
-19.55499547834272
 20
18.62694197834831
 30
0.0
 40
0.099999996026357
  1
BF:
  7
ERSTELLTER_STIL_3
 11
-19.55499547834272
 21
18.72694197437467
 31
0.0
100
AcDbAttributeDefinition
  3
Bezeichnung Grundfläche
  2
gf_bez
 70
     0
 74
     3
280
     0
  0
ATTDEF
  5
1D3
330
1AE
100
AcDbEntity
  8
01_Raumstempel_Text
  6
Continuous
100
AcDbText
 10
-18.99845441929031
 20
18.62694197834831
 30
0.0
 40
0.099999996026357
  1
 m
  7
ERSTELLTER_STIL_3
 11
-18.99845441929031
 21
18.72694197437467
 31
0.0
100
AcDbAttributeDefinition
  3
DUMMY_558
  2
DUMMY_558
 70
     0
 74
     3
280
     0
  0
ATTDEF
  5
1D4
330
1AE
100
AcDbEntity
  8
01_Raumstempel_Text
  6
Continuous
100
AcDbText
 10
-18.8461106501822
 20
18.66789435317465
 30
0.0
 40
0.0666666688190566
  1
2
  7
ERSTELLTER_STIL_3
 11
-18.8461106501822
 21
18.73456102199371
 31
0.0
100
AcDbAttributeDefinition
  3
DUMMY_559
  2
DUMMY_559
 70
     0
 74
     3
280
     0
  0
ATTDEF
  5
1D5
330
1AE
100
AcDbEntity
  8
01_Raumstempel_Text
  6
Continuous
100
AcDbText
 10
-18.68678500627944
 20
18.43051340691974
 30
0.0
 40
0.099999996026357
  1
±
  7
ERSTELLTER_STIL_3
 72
     2
 11
-18.61018500932325
 21
18.5305134029461
 31
0.0
100
AcDbAttributeDefinition
  3
DUMMY_560
  2
DUMMY_560
 70
     0
 74
     3
280
     0
  0
ATTDEF
  5
1D6
330
1AE
100
AcDbEntity
  8
01_Raumstempel_Text
  6
Continuous
100
AcDbText
 10
-18.68628314424991
 20
18.23408483549117
 30
0.0
 40
0.099999996026357
  1
-
  7
ERSTELLTER_STIL_3
 72
     2
 11
-18.63978314609765
 21
18.33408483151753
 31
0.0
100
AcDbAttributeDefinition
  3
DUMMY_561
  2
DUMMY_561
 70
     0
 74
     3
280
     0
  0
ENDBLK
  5
1D9
330
1AE
100
AcDbEntity
  8
0
100
AcDbBlockEnd
  0
BLOCK
  5
1D8
330
1D7
100
AcDbEntity
  8
0
100
AcDbBlockBegin
  2
Büro_EG-03_2
 70
     2
 10
-19.13908010988684
 20
16.03471970690578
 30
0.0
  3
Büro_EG-03_2
  1

  0
LINE
  5
1DA
102
{ACAD_XDICTIONARY
360
1DB
102
}
330
1D7
100
AcDbEntity
  8
01_Raumstempel_Textrahmen
  6
Continuous
100
AcDbLine
 10
-19.7547670359988
 20
15.5132911354772
 30
0.0
 11
-18.52339318377488
 21
15.5132911354772
 31
0.0
  0
LINE
  5
1DD
102
{ACAD_XDICTIONARY
360
1DE
102
}
330
1D7
100
AcDbEntity
  8
01_Raumstempel_Textrahmen
  6
Continuous
100
AcDbLine
 10
-18.52339318377488
 20
15.5132911354772
 30
0.0
 11
-18.52339318377488
 21
15.12043399262006
 31
0.0
  0
LINE
  5
1E0
102
{ACAD_XDICTIONARY
360
1E1
102
}
330
1D7
100
AcDbEntity
  8
01_Raumstempel_Textrahmen
  6
Continuous
100
AcDbLine
 10
-18.52339318377488
 20
15.12043399262006
 30
0.0
 11
-19.7547670359988
 21
15.12043399262006
 31
0.0
  0
LINE
  5
1E3
102
{ACAD_XDICTIONARY
360
1E4
102
}
330
1D7
100
AcDbEntity
  8
01_Raumstempel_Textrahmen
  6
Continuous
100
AcDbLine
 10
-19.7547670359988
 20
15.12043399262006
 30
0.0
 11
-19.7547670359988
 21
15.5132911354772
 31
0.0
  0
LINE
  5
1E6
102
{ACAD_XDICTIONARY
360
1E7
102
}
330
1D7
100
AcDbEntity
  8
01_Raumstempel_Textrahmen
  6
Continuous
100
AcDbLine
 10
-18.92451014550558
 20
15.5132911354772
 30
0.0
 11
-18.92451014550558
 21
15.12043399262006
 31
0.0
  0
LINE
  5
1E9
102
{ACAD_XDICTIONARY
360
1EA
102
}
330
1D7
100
AcDbEntity
  8
01_Raumstempel_Textrahmen
  6
Continuous
100
AcDbLine
 10
-18.92451014550558
 20
15.31686256404863
 30
0.0
 11
-18.52339318377488
 21
15.31686256404863
 31
0.0
  0
ATTDEF
  5
1EC
102
{ACAD_XDICTIONARY
360
1ED
102
}
330
1D7
100
AcDbEntity
  8
01_Raumstempel_Text
  6
Continuous
100
AcDbText
 10
-19.7547670359988
 20
15.80043398897755
 30
0.0
 40
0.1500000036425061
  1
Büro
  7
ERSTELLTER_STIL_2
 11
-19.7547670359988
 21
15.95043399262006
 31
0.0
100
AcDbAttributeDefinition
  3
Raumname
  2
ROOM_NAME
 70
     0
 74
     3
280
     0
  0
ATTDEF
  5
1EF
102
{ACAD_XDICTIONARY
360
1F0
102
}
330
1D7
100
AcDbEntity
  8
01_Raumstempel_Text
  6
Continuous
100
AcDbText
 10
-19.63690989314166
 20
15.25043398897756
 30
0.0
 40
0.1500000036425061
  1
EG-03
  7
ERSTELLTER_STIL_2
 11
-19.63690989314166
 21
15.40043399262006
 31
0.0
100
AcDbAttributeDefinition
  3
Raumnummer
  2
ROOM_NUMBER
 70
     0
 74
     3
280
     0
  0
ATTDEF
  5
1F2
330
1D7
100
AcDbEntity
  8
01_Raumstempel_Text
  6
Continuous
100
AcDbText
 10
-19.5414187750379
 20
15.56721971087942
 30
0.0
 40
0.099999996026357
  1
18.09
  7
ERSTELLTER_STIL_3
 11
-19.5414187750379
 21
15.66721970690578
 31
0.0
100
AcDbAttributeDefinition
  3
Gemessene Fläche
  2
ROOM_AREA
 70
     0
 74
     3
280
     0
  0
ATTDEF
  5
1F3
330
1D7
100
AcDbEntity
  8
01_Raumstempel_Text
  6
Continuous
100
AcDbText
 10
-18.80995656697933
 20
15.37079113945084
 30
0.0
 40
0.099999996026357
  1
0.00
  7
ERSTELLTER_STIL_3
 11
-18.80995656697933
 21
15.4707911354772
 31
0.0
100
AcDbAttributeDefinition
  3
Gesamtlänge aller Bodenkanten
  2
ROOM_HOLES_PRM
 70
     0
 74
     3
280
     0
  0
ATTDEF
  5
1F4
330
1D7
100
AcDbEntity
  8
01_Raumstempel_Text
  6
Continuous
100
AcDbText
 10
-18.80995656697933
 20
15.17436256802227
 30
0.0
 40
0.099999996026357
  1
0.15
  7
ERSTELLTER_STIL_3
 11
-18.80995656697933
 21
15.27436256404863
 31
0.0
100
AcDbAttributeDefinition
  3

  2
orders_temp
 70
     0
 74
     3
280
     0
  0
ATTDEF
  5
1F5
330
1D7
100
AcDbEntity
  8
01_Raumstempel_Text
  6
Continuous
100
AcDbText
 10
-19.7547670359988
 20
14.9779339965937
 30
0.0
 40
0.099999996026357
  1
B:
  7
ERSTELLTER_STIL_3
 11
-19.7547670359988
 21
15.07793399262006
 31
0.0
100
AcDbAttributeDefinition
  3
Bodenbelag Titel
  2
floor_bez
 70
     0
 74
     3
280
     0
  0
ATTDEF
  5
1F6
330
1D7
100
AcDbEntity
  8
01_Raumstempel_Text
  6
Continuous
100
AcDbText
 10
-19.58969982061485
 20
14.9779339965937
 30
0.0
 40
0.099999996026357
  1
Parkett
  7
ERSTELLTER_STIL_3
 11
-19.58969982061485
 21
15.07793399262006
 31
0.0
100
AcDbAttributeDefinition
  3
Bodenbelag
  2
floor_f
 70
     0
 74
     3
280
     0
  0
ATTDEF
  5
1F7
330
1D7
100
AcDbEntity
  8
01_Raumstempel_Text
  6
Continuous
100
AcDbText
 10
-19.7547670359988
 20
14.78150542516513
 30
0.0
 40
0.099999996026357
  1
W:
  7
ERSTELLTER_STIL_3
 11
-19.7547670359988
 21
14.88150542119149
 31
0.0
100
AcDbAttributeDefinition
  3
Bezeichnung Wandbelag
  2
wall_bez
 70
     0
 74
     3
280
     0
  0
ATTDEF
  5
1F8
330
1D7
100
AcDbEntity
  8
01_Raumstempel_Text
  6
Continuous
100
AcDbText
 10
-19.58969982061485
 20
14.78150542516513
 30
0.0
 40
0.099999996026357
  1
Weissputz
  7
ERSTELLTER_STIL_3
 11
-19.58969982061485
 21
14.88150542119149
 31
0.0
100
AcDbAttributeDefinition
  3
Wandbelag Material
  2
wall_mat_0
 70
     0
 74
     3
280
     0
  0
ATTDEF
  5
1F9
330
1D7
100
AcDbEntity
  8
01_Raumstempel_Text
  6
Continuous
100
AcDbText
 10
-19.58969982061485
 20
14.58507685373656
 30
0.0
 40
0.099999996026357
  1
Weissputz
  7
ERSTELLTER_STIL_3
 11
-19.58969982061485
 21
14.68507684976292
 31
0.0
100
AcDbAttributeDefinition
  3
Wandbelag Material
  2
wall_mat_1
 70
     0
 74
     3
280
     0
  0
ATTDEF
  5
1FA
330
1D7
100
AcDbEntity
  8
01_Raumstempel_Text
  6
Continuous
100
AcDbText
 10
-19.7547670359988
 20
14.58507685373656
 30
0.0
 40
0.099999996026357
  1
D:
  7
ERSTELLTER_STIL_3
 11
-19.7547670359988
 21
14.68507684976292
 31
0.0
100
AcDbAttributeDefinition
  3
Deckenbelag Titel
  2
ceil_bez
 70
     0
 74
     3
280
     0
  0
ATTDEF
  5
1FB
330
1D7
100
AcDbEntity
  8
01_Raumstempel_Text
  6
Continuous
100
AcDbText
 10
-19.7547670359988
 20
15.56721971087942
 30
0.0
 40
0.099999996026357
  1
BF:
  7
ERSTELLTER_STIL_3
 11
-19.7547670359988
 21
15.66721970690578
 31
0.0
100
AcDbAttributeDefinition
  3
Bezeichnung Grundfläche
  2
gf_bez
 70
     0
 74
     3
280
     0
  0
ATTDEF
  5
1FC
330
1D7
100
AcDbEntity
  8
01_Raumstempel_Text
  6
Continuous
100
AcDbText
 10
-19.19822597694639
 20
15.56721971087942
 30
0.0
 40
0.099999996026357
  1
 m
  7
ERSTELLTER_STIL_3
 11
-19.19822597694639
 21
15.66721970690578
 31
0.0
100
AcDbAttributeDefinition
  3
DUMMY_558
  2
DUMMY_558
 70
     0
 74
     3
280
     0
  0
ATTDEF
  5
1FD
330
1D7
100
AcDbEntity
  8
01_Raumstempel_Text
  6
Continuous
100
AcDbText
 10
-19.04588220783828
 20
15.60817208570576
 30
0.0
 40
0.0666666688190566
  1
2
  7
ERSTELLTER_STIL_3
 11
-19.04588220783828
 21
15.67483875452482
 31
0.0
100
AcDbAttributeDefinition
  3
DUMMY_559
  2
DUMMY_559
 70
     0
 74
     3
280
     0
  0
ATTDEF
  5
1FE
330
1D7
100
AcDbEntity
  8
01_Raumstempel_Text
  6
Continuous
100
AcDbText
 10
-18.88655656393552
 20
15.37079113945084
 30
0.0
 40
0.099999996026357
  1
±
  7
ERSTELLTER_STIL_3
 72
     2
 11
-18.80995656697933
 21
15.4707911354772
 31
0.0
100
AcDbAttributeDefinition
  3
DUMMY_560
  2
DUMMY_560
 70
     0
 74
     3
280
     0
  0
ATTDEF
  5
1FF
330
1D7
100
AcDbEntity
  8
01_Raumstempel_Text
  6
Continuous
100
AcDbText
 10
-18.88605470190599
 20
15.17436256802227
 30
0.0
 40
0.099999996026357
  1
-
  7
ERSTELLTER_STIL_3
 72
     2
 11
-18.83955470375373
 21
15.27436256404863
 31
0.0
100
AcDbAttributeDefinition
  3
DUMMY_561
  2
DUMMY_561
 70
     0
 74
     3
280
     0
  0
ENDBLK
  5
202
330
1D7
100
AcDbEntity
  8
0
100
AcDbBlockEnd
  0
BLOCK
  5
201
330
200
100
AcDbEntity
  8
0
100
AcDbBlockBegin
  2
Basteln_EG-10_3
 70
     2
 10
-5.725574287323747
 20
14.52701380354612
 30
0.0
  3
Basteln_EG-10_3
  1

  0
LINE
  5
203
102
{ACAD_XDICTIONARY
360
204
102
}
330
200
100
AcDbEntity
  8
01_Raumstempel_Textrahmen
  6
Continuous
100
AcDbLine
 10
-6.34126121343571
 20
14.00558523211754
 30
0.0
 11
-5.109887361211784
 21
14.00558523211754
 31
0.0
  0
LINE
  5
206
102
{ACAD_XDICTIONARY
360
207
102
}
330
200
100
AcDbEntity
  8
01_Raumstempel_Textrahmen
  6
Continuous
100
AcDbLine
 10
-5.109887361211784
 20
14.00558523211754
 30
0.0
 11
-5.109887361211784
 21
13.6127280892604
 31
0.0
  0
LINE
  5
209
102
{ACAD_XDICTIONARY
360
20A
102
}
330
200
100
AcDbEntity
  8
01_Raumstempel_Textrahmen
  6
Continuous
100
AcDbLine
 10
-5.109887361211784
 20
13.6127280892604
 30
0.0
 11
-6.34126121343571
 21
13.6127280892604
 31
0.0
  0
LINE
  5
20C
102
{ACAD_XDICTIONARY
360
20D
102
}
330
200
100
AcDbEntity
  8
01_Raumstempel_Textrahmen
  6
Continuous
100
AcDbLine
 10
-6.34126121343571
 20
13.6127280892604
 30
0.0
 11
-6.34126121343571
 21
14.00558523211754
 31
0.0
  0
LINE
  5
20F
102
{ACAD_XDICTIONARY
360
210
102
}
330
200
100
AcDbEntity
  8
01_Raumstempel_Textrahmen
  6
Continuous
100
AcDbLine
 10
-5.511004322942481
 20
14.00558523211754
 30
0.0
 11
-5.511004322942481
 21
13.6127280892604
 31
0.0
  0
LINE
  5
212
102
{ACAD_XDICTIONARY
360
213
102
}
330
200
100
AcDbEntity
  8
01_Raumstempel_Textrahmen
  6
Continuous
100
AcDbLine
 10
-5.511004322942481
 20
13.80915666068897
 30
0.0
 11
-5.109887361211784
 21
13.80915666068897
 31
0.0
  0
ATTDEF
  5
215
102
{ACAD_XDICTIONARY
360
216
102
}
330
200
100
AcDbEntity
  8
01_Raumstempel_Text
  6
Continuous
100
AcDbText
 10
-6.34126121343571
 20
14.2927280856179
 30
0.0
 40
0.1500000036425061
  1
Basteln
  7
ERSTELLTER_STIL_2
 11
-6.34126121343571
 21
14.4427280892604
 31
0.0
100
AcDbAttributeDefinition
  3
Raumname
  2
ROOM_NAME
 70
     0
 74
     3
280
     0
  0
ATTDEF
  5
218
102
{ACAD_XDICTIONARY
360
219
102
}
330
200
100
AcDbEntity
  8
01_Raumstempel_Text
  6
Continuous
100
AcDbText
 10
-6.223404070578567
 20
13.74272808561789
 30
0.0
 40
0.1500000036425061
  1
EG-10
  7
ERSTELLTER_STIL_2
 11
-6.223404070578567
 21
13.8927280892604
 31
0.0
100
AcDbAttributeDefinition
  3
Raumnummer
  2
ROOM_NUMBER
 70
     0
 74
     3
280
     0
  0
ATTDEF
  5
21B
330
200
100
AcDbEntity
  8
01_Raumstempel_Text
  6
Continuous
100
AcDbText
 10
-5.396450744416236
 20
13.86308523609118
 30
0.0
 40
0.099999996026357
  1
0.00
  7
ERSTELLTER_STIL_3
 11
-5.396450744416236
 21
13.96308523211754
 31
0.0
100
AcDbAttributeDefinition
  3
Gesamtlänge aller Bodenkanten
  2
ROOM_HOLES_PRM
 70
     0
 74
     3
280
     0
  0
ATTDEF
  5
21C
330
200
100
AcDbEntity
  8
01_Raumstempel_Text
  6
Continuous
100
AcDbText
 10
-6.127912952474803
 20
14.05951380751976
 30
0.0
 40
0.099999996026357
  1
15.17
  7
ERSTELLTER_STIL_3
 11
-6.127912952474803
 21
14.15951380354612
 31
0.0
100
AcDbAttributeDefinition
  3

  2
orders_temp_0
 70
     0
 74
     3
280
     0
  0
ATTDEF
  5
21D
330
200
100
AcDbEntity
  8
01_Raumstempel_Text
  6
Continuous
100
AcDbText
 10
-5.396450744416236
 20
13.66665666466261
 30
0.0
 40
0.099999996026357
  1
0.15
  7
ERSTELLTER_STIL_3
 11
-5.396450744416236
 21
13.76665666068897
 31
0.0
100
AcDbAttributeDefinition
  3

  2
orders_temp_1
 70
     0
 74
     3
280
     0
  0
ATTDEF
  5
21E
330
200
100
AcDbEntity
  8
01_Raumstempel_Text
  6
Continuous
100
AcDbText
 10
-6.34126121343571
 20
13.47022809323404
 30
0.0
 40
0.099999996026357
  1
B:
  7
ERSTELLTER_STIL_3
 11
-6.34126121343571
 21
13.5702280892604
 31
0.0
100
AcDbAttributeDefinition
  3
Bodenbelag Titel
  2
floor_bez
 70
     0
 74
     3
280
     0
  0
ATTDEF
  5
21F
330
200
100
AcDbEntity
  8
01_Raumstempel_Text
  6
Continuous
100
AcDbText
 10
-6.176193998051758
 20
13.47022809323404
 30
0.0
 40
0.099999996026357
  1
(Würfel-) Parkett
  7
ERSTELLTER_STIL_3
 11
-6.176193998051758
 21
13.5702280892604
 31
0.0
100
AcDbAttributeDefinition
  3
Bodenbelag
  2
floor_f
 70
     0
 74
     3
280
     0
  0
ATTDEF
  5
220
330
200
100
AcDbEntity
  8
01_Raumstempel_Text
  6
Continuous
100
AcDbText
 10
-6.34126121343571
 20
13.27379952180547
 30
0.0
 40
0.099999996026357
  1
W:
  7
ERSTELLTER_STIL_3
 11
-6.34126121343571
 21
13.37379951783183
 31
0.0
100
AcDbAttributeDefinition
  3
Bezeichnung Wandbelag
  2
wall_bez
 70
     0
 74
     3
280
     0
  0
ATTDEF
  5
221
330
200
100
AcDbEntity
  8
01_Raumstempel_Text
  6
Continuous
100
AcDbText
 10
-6.176193998051758
 20
13.27379952180547
 30
0.0
 40
0.099999996026357
  1
Weissputz
  7
ERSTELLTER_STIL_3
 11
-6.176193998051758
 21
13.37379951783183
 31
0.0
100
AcDbAttributeDefinition
  3
Wandbelag Material
  2
wall_mat_0
 70
     0
 74
     3
280
     0
  0
ATTDEF
  5
222
330
200
100
AcDbEntity
  8
01_Raumstempel_Text
  6
Continuous
100
AcDbText
 10
-6.176193998051758
 20
13.0773709503769
 30
0.0
 40
0.099999996026357
  1
Weissputz
  7
ERSTELLTER_STIL_3
 11
-6.176193998051758
 21
13.17737094640326
 31
0.0
100
AcDbAttributeDefinition
  3
Wandbelag Material
  2
wall_mat_1
 70
     0
 74
     3
280
     0
  0
ATTDEF
  5
223
330
200
100
AcDbEntity
  8
01_Raumstempel_Text
  6
Continuous
100
AcDbText
 10
-6.34126121343571
 20
13.0773709503769
 30
0.0
 40
0.099999996026357
  1
D:
  7
ERSTELLTER_STIL_3
 11
-6.34126121343571
 21
13.17737094640326
 31
0.0
100
AcDbAttributeDefinition
  3
Deckenbelag Titel
  2
ceil_bez
 70
     0
 74
     3
280
     0
  0
ATTDEF
  5
224
330
200
100
AcDbEntity
  8
01_Raumstempel_Text
  6
Continuous
100
AcDbText
 10
-6.34126121343571
 20
14.05951380751976
 30
0.0
 40
0.099999996026357
  1
BF:
  7
ERSTELLTER_STIL_3
 11
-6.34126121343571
 21
14.15951380354612
 31
0.0
100
AcDbAttributeDefinition
  3
Bezeichnung Grundfläche
  2
gf_bez
 70
     0
 74
     3
280
     0
  0
ATTDEF
  5
225
330
200
100
AcDbEntity
  8
01_Raumstempel_Text
  6
Continuous
100
AcDbText
 10
-5.784720154383299
 20
14.05951380751976
 30
0.0
 40
0.099999996026357
  1
 m
  7
ERSTELLTER_STIL_3
 11
-5.784720154383299
 21
14.15951380354612
 31
0.0
100
AcDbAttributeDefinition
  3
DUMMY_558
  2
DUMMY_558
 70
     0
 74
     3
280
     0
  0
ATTDEF
  5
226
330
200
100
AcDbEntity
  8
01_Raumstempel_Text
  6
Continuous
100
AcDbText
 10
-5.632376385275188
 20
14.1004661823461
 30
0.0
 40
0.0666666688190566
  1
2
  7
ERSTELLTER_STIL_3
 11
-5.632376385275188
 21
14.16713285116516
 31
0.0
100
AcDbAttributeDefinition
  3
DUMMY_559
  2
DUMMY_559
 70
     0
 74
     3
280
     0
  0
ATTDEF
  5
227
330
200
100
AcDbEntity
  8
01_Raumstempel_Text
  6
Continuous
100
AcDbText
 10
-5.473050741372425
 20
13.86308523609118
 30
0.0
 40
0.099999996026357
  1
±
  7
ERSTELLTER_STIL_3
 72
     2
 11
-5.396450744416236
 21
13.96308523211754
 31
0.0
100
AcDbAttributeDefinition
  3
DUMMY_560
  2
DUMMY_560
 70
     0
 74
     3
280
     0
  0
ATTDEF
  5
228
330
200
100
AcDbEntity
  8
01_Raumstempel_Text
  6
Continuous
100
AcDbText
 10
-5.472548879342892
 20
13.66665666466261
 30
0.0
 40
0.099999996026357
  1
-
  7
ERSTELLTER_STIL_3
 72
     2
 11
-5.426048881190636
 21
13.76665666068897
 31
0.0
100
AcDbAttributeDefinition
  3
DUMMY_561
  2
DUMMY_561
 70
     0
 74
     3
280
     0
  0
ENDBLK
  5
22B
330
200
100
AcDbEntity
  8
0
100
AcDbBlockEnd
  0
BLOCK
  5
22A
330
229
100
AcDbEntity
  8
0
100
AcDbBlockBegin
  2
Wohnen_EG-02_4
 70
     2
 10
-19.13908010988684
 20
11.43281584741161
 30
0.0
  3
Wohnen_EG-02_4
  1

  0
LINE
  5
22C
102
{ACAD_XDICTIONARY
360
22D
102
}
330
229
100
AcDbEntity
  8
01_Raumstempel_Textrahmen
  6
Continuous
100
AcDbLine
 10
-19.7547670359988
 20
10.91138727598304
 30
0.0
 11
-18.52339318377488
 21
10.91138727598304
 31
0.0
  0
LINE
  5
22F
102
{ACAD_XDICTIONARY
360
230
102
}
330
229
100
AcDbEntity
  8
01_Raumstempel_Textrahmen
  6
Continuous
100
AcDbLine
 10
-18.52339318377488
 20
10.91138727598304
 30
0.0
 11
-18.52339318377488
 21
10.51853013312589
 31
0.0
  0
LINE
  5
232
102
{ACAD_XDICTIONARY
360
233
102
}
330
229
100
AcDbEntity
  8
01_Raumstempel_Textrahmen
  6
Continuous
100
AcDbLine
 10
-18.52339318377488
 20
10.51853013312589
 30
0.0
 11
-19.7547670359988
 21
10.51853013312589
 31
0.0
  0
LINE
  5
235
102
{ACAD_XDICTIONARY
360
236
102
}
330
229
100
AcDbEntity
  8
01_Raumstempel_Textrahmen
  6
Continuous
100
AcDbLine
 10
-19.7547670359988
 20
10.51853013312589
 30
0.0
 11
-19.7547670359988
 21
10.91138727598304
 31
0.0
  0
LINE
  5
238
102
{ACAD_XDICTIONARY
360
239
102
}
330
229
100
AcDbEntity
  8
01_Raumstempel_Textrahmen
  6
Continuous
100
AcDbLine
 10
-18.92451014550558
 20
10.91138727598304
 30
0.0
 11
-18.92451014550558
 21
10.51853013312589
 31
0.0
  0
LINE
  5
23B
102
{ACAD_XDICTIONARY
360
23C
102
}
330
229
100
AcDbEntity
  8
01_Raumstempel_Textrahmen
  6
Continuous
100
AcDbLine
 10
-18.92451014550558
 20
10.71495870455446
 30
0.0
 11
-18.52339318377488
 21
10.71495870455446
 31
0.0
  0
ATTDEF
  5
23E
102
{ACAD_XDICTIONARY
360
23F
102
}
330
229
100
AcDbEntity
  8
01_Raumstempel_Text
  6
Continuous
100
AcDbText
 10
-19.7547670359988
 20
11.19853012948338
 30
0.0
 40
0.1500000036425061
  1
Wohnen
  7
ERSTELLTER_STIL_2
 11
-19.7547670359988
 21
11.34853013312589
 31
0.0
100
AcDbAttributeDefinition
  3
Raumname
  2
ROOM_NAME
 70
     0
 74
     3
280
     0
  0
ATTDEF
  5
241
102
{ACAD_XDICTIONARY
360
242
102
}
330
229
100
AcDbEntity
  8
01_Raumstempel_Text
  6
Continuous
100
AcDbText
 10
-19.63690989314166
 20
10.64853012948338
 30
0.0
 40
0.1500000036425061
  1
EG-02
  7
ERSTELLTER_STIL_2
 11
-19.63690989314166
 21
10.79853013312589
 31
0.0
100
AcDbAttributeDefinition
  3
Raumnummer
  2
ROOM_NUMBER
 70
     0
 74
     3
280
     0
  0
ATTDEF
  5
244
330
229
100
AcDbEntity
  8
01_Raumstempel_Text
  6
Continuous
100
AcDbText
 10
-19.5414187750379
 20
10.96531585138525
 30
0.0
 40
0.099999996026357
  1
33.78
  7
ERSTELLTER_STIL_3
 11
-19.5414187750379
 21
11.06531584741161
 31
0.0
100
AcDbAttributeDefinition
  3
Gemessene Fläche
  2
ROOM_AREA
 70
     0
 74
     3
280
     0
  0
ATTDEF
  5
245
330
229
100
AcDbEntity
  8
01_Raumstempel_Text
  6
Continuous
100
AcDbText
 10
-18.80995656697933
 20
10.76888727995668
 30
0.0
 40
0.099999996026357
  1
0.00
  7
ERSTELLTER_STIL_3
 11
-18.80995656697933
 21
10.86888727598304
 31
0.0
100
AcDbAttributeDefinition
  3
Gesamtlänge aller Bodenkanten
  2
ROOM_HOLES_PRM
 70
     0
 74
     3
280
     0
  0
ATTDEF
  5
246
330
229
100
AcDbEntity
  8
01_Raumstempel_Text
  6
Continuous
100
AcDbText
 10
-18.80995656697933
 20
10.5724587085281
 30
0.0
 40
0.099999996026357
  1
0.15
  7
ERSTELLTER_STIL_3
 11
-18.80995656697933
 21
10.67245870455446
 31
0.0
100
AcDbAttributeDefinition
  3

  2
orders_temp
 70
     0
 74
     3
280
     0
  0
ATTDEF
  5
247
330
229
100
AcDbEntity
  8
01_Raumstempel_Text
  6
Continuous
100
AcDbText
 10
-19.7547670359988
 20
10.37603013709953
 30
0.0
 40
0.099999996026357
  1
B:
  7
ERSTELLTER_STIL_3
 11
-19.7547670359988
 21
10.47603013312589
 31
0.0
100
AcDbAttributeDefinition
  3
Bodenbelag Titel
  2
floor_bez
 70
     0
 74
     3
280
     0
  0
ATTDEF
  5
248
330
229
100
AcDbEntity
  8
01_Raumstempel_Text
  6
Continuous
100
AcDbText
 10
-19.58969982061485
 20
10.37603013709953
 30
0.0
 40
0.099999996026357
  1
FST
  7
ERSTELLTER_STIL_3
 11
-19.58969982061485
 21
10.47603013312589
 31
0.0
100
AcDbAttributeDefinition
  3
Bodenbelag
  2
floor_f
 70
     0
 74
     3
280
     0
  0
ATTDEF
  5
249
330
229
100
AcDbEntity
  8
01_Raumstempel_Text
  6
Continuous
100
AcDbText
 10
-19.7547670359988
 20
10.17960156567096
 30
0.0
 40
0.099999996026357
  1
W:
  7
ERSTELLTER_STIL_3
 11
-19.7547670359988
 21
10.27960156169732
 31
0.0
100
AcDbAttributeDefinition
  3
Bezeichnung Wandbelag
  2
wall_bez
 70
     0
 74
     3
280
     0
  0
ATTDEF
  5
24A
330
229
100
AcDbEntity
  8
01_Raumstempel_Text
  6
Continuous
100
AcDbText
 10
-19.58969982061485
 20
10.17960156567096
 30
0.0
 40
0.099999996026357
  1
Weissputz
  7
ERSTELLTER_STIL_3
 11
-19.58969982061485
 21
10.27960156169732
 31
0.0
100
AcDbAttributeDefinition
  3
Wandbelag Material
  2
wall_mat_0
 70
     0
 74
     3
280
     0
  0
ATTDEF
  5
24B
330
229
100
AcDbEntity
  8
01_Raumstempel_Text
  6
Continuous
100
AcDbText
 10
-19.58969982061485
 20
9.983172994242393
 30
0.0
 40
0.099999996026357
  1
Weissputz
  7
ERSTELLTER_STIL_3
 11
-19.58969982061485
 21
10.08317299026875
 31
0.0
100
AcDbAttributeDefinition
  3
Wandbelag Material
  2
wall_mat_1
 70
     0
 74
     3
280
     0
  0
ATTDEF
  5
24C
330
229
100
AcDbEntity
  8
01_Raumstempel_Text
  6
Continuous
100
AcDbText
 10
-19.7547670359988
 20
9.983172994242393
 30
0.0
 40
0.099999996026357
  1
D:
  7
ERSTELLTER_STIL_3
 11
-19.7547670359988
 21
10.08317299026875
 31
0.0
100
AcDbAttributeDefinition
  3
Deckenbelag Titel
  2
ceil_bez
 70
     0
 74
     3
280
     0
  0
ATTDEF
  5
24D
330
229
100
AcDbEntity
  8
01_Raumstempel_Text
  6
Continuous
100
AcDbText
 10
-19.7547670359988
 20
10.96531585138525
 30
0.0
 40
0.099999996026357
  1
BF:
  7
ERSTELLTER_STIL_3
 11
-19.7547670359988
 21
11.06531584741161
 31
0.0
100
AcDbAttributeDefinition
  3
Bezeichnung Grundfläche
  2
gf_bez
 70
     0
 74
     3
280
     0
  0
ATTDEF
  5
24E
330
229
100
AcDbEntity
  8
01_Raumstempel_Text
  6
Continuous
100
AcDbText
 10
-19.19822597694639
 20
10.96531585138525
 30
0.0
 40
0.099999996026357
  1
 m
  7
ERSTELLTER_STIL_3
 11
-19.19822597694639
 21
11.06531584741161
 31
0.0
100
AcDbAttributeDefinition
  3
DUMMY_558
  2
DUMMY_558
 70
     0
 74
     3
280
     0
  0
ATTDEF
  5
24F
330
229
100
AcDbEntity
  8
01_Raumstempel_Text
  6
Continuous
100
AcDbText
 10
-19.04588220783828
 20
11.0062682262116
 30
0.0
 40
0.0666666688190566
  1
2
  7
ERSTELLTER_STIL_3
 11
-19.04588220783828
 21
11.07293489503066
 31
0.0
100
AcDbAttributeDefinition
  3
DUMMY_559
  2
DUMMY_559
 70
     0
 74
     3
280
     0
  0
ATTDEF
  5
250
330
229
100
AcDbEntity
  8
01_Raumstempel_Text
  6
Continuous
100
AcDbText
 10
-18.88655656393552
 20
10.76888727995668
 30
0.0
 40
0.099999996026357
  1
±
  7
ERSTELLTER_STIL_3
 72
     2
 11
-18.80995656697933
 21
10.86888727598304
 31
0.0
100
AcDbAttributeDefinition
  3
DUMMY_560
  2
DUMMY_560
 70
     0
 74
     3
280
     0
  0
ATTDEF
  5
251
330
229
100
AcDbEntity
  8
01_Raumstempel_Text
  6
Continuous
100
AcDbText
 10
-18.88605470190599
 20
10.5724587085281
 30
0.0
 40
0.099999996026357
  1
-
  7
ERSTELLTER_STIL_3
 72
     2
 11
-18.83955470375373
 21
10.67245870455446
 31
0.0
100
AcDbAttributeDefinition
  3
DUMMY_561
  2
DUMMY_561
 70
     0
 74
     3
280
     0
  0
ENDBLK
  5
254
330
229
100
AcDbEntity
  8
0
100
AcDbBlockEnd
  0
BLOCK
  5
253
330
252
100
AcDbEntity
  8
0
100
AcDbBlockBegin
  2
Küche___Essen_EG-01_5
 70
     2
 10
-13.46492201247775
 20
12.8124579013105
 30
0.0
  3
Küche___Essen_EG-01_5
  1

  0
LINE
  5
255
102
{ACAD_XDICTIONARY
360
256
102
}
330
252
100
AcDbEntity
  8
01_Raumstempel_Textrahmen
  6
Continuous
100
AcDbLine
 10
-14.16804744235547
 20
12.29102932988193
 30
0.0
 11
-12.93667359013155
 21
12.29102932988193
 31
0.0
  0
LINE
  5
258
102
{ACAD_XDICTIONARY
360
259
102
}
330
252
100
AcDbEntity
  8
01_Raumstempel_Textrahmen
  6
Continuous
100
AcDbLine
 10
-12.93667359013155
 20
12.29102932988193
 30
0.0
 11
-12.93667359013155
 21
11.89817218702479
 31
0.0
  0
LINE
  5
25B
102
{ACAD_XDICTIONARY
360
25C
102
}
330
252
100
AcDbEntity
  8
01_Raumstempel_Textrahmen
  6
Continuous
100
AcDbLine
 10
-12.93667359013155
 20
11.89817218702479
 30
0.0
 11
-14.16804744235547
 21
11.89817218702479
 31
0.0
  0
LINE
  5
25E
102
{ACAD_XDICTIONARY
360
25F
102
}
330
252
100
AcDbEntity
  8
01_Raumstempel_Textrahmen
  6
Continuous
100
AcDbLine
 10
-14.16804744235547
 20
11.89817218702479
 30
0.0
 11
-14.16804744235547
 21
12.29102932988193
 31
0.0
  0
LINE
  5
261
102
{ACAD_XDICTIONARY
360
262
102
}
330
252
100
AcDbEntity
  8
01_Raumstempel_Textrahmen
  6
Continuous
100
AcDbLine
 10
-13.33779055186224
 20
12.29102932988193
 30
0.0
 11
-13.33779055186224
 21
11.89817218702479
 31
0.0
  0
LINE
  5
264
102
{ACAD_XDICTIONARY
360
265
102
}
330
252
100
AcDbEntity
  8
01_Raumstempel_Textrahmen
  6
Continuous
100
AcDbLine
 10
-13.33779055186224
 20
12.09460075845336
 30
0.0
 11
-12.93667359013155
 21
12.09460075845336
 31
0.0
  0
ATTDEF
  5
267
102
{ACAD_XDICTIONARY
360
268
102
}
330
252
100
AcDbEntity
  8
01_Raumstempel_Text
  6
Continuous
100
AcDbText
 10
-14.16804744235547
 20
12.57817218338228
 30
0.0
 40
0.1500000036425061
  1
Küche / Essen
  7
ERSTELLTER_STIL_2
 11
-14.16804744235547
 21
12.72817218702479
 31
0.0
100
AcDbAttributeDefinition
  3
Raumname
  2
ROOM_NAME
 70
     0
 74
     3
280
     0
  0
ATTDEF
  5
26A
102
{ACAD_XDICTIONARY
360
26B
102
}
330
252
100
AcDbEntity
  8
01_Raumstempel_Text
  6
Continuous
100
AcDbText
 10
-14.05019029949833
 20
12.02817218338228
 30
0.0
 40
0.1500000036425061
  1
EG-01
  7
ERSTELLTER_STIL_2
 11
-14.05019029949833
 21
12.17817218702479
 31
0.0
100
AcDbAttributeDefinition
  3
Raumnummer
  2
ROOM_NUMBER
 70
     0
 74
     3
280
     0
  0
ATTDEF
  5
26D
330
252
100
AcDbEntity
  8
01_Raumstempel_Text
  6
Continuous
100
AcDbText
 10
-13.95469918139457
 20
12.34495790528414
 30
0.0
 40
0.099999996026357
  1
51.61
  7
ERSTELLTER_STIL_3
 11
-13.95469918139457
 21
12.4449579013105
 31
0.0
100
AcDbAttributeDefinition
  3
Gemessene Fläche
  2
ROOM_AREA
 70
     0
 74
     3
280
     0
  0
ATTDEF
  5
26E
330
252
100
AcDbEntity
  8
01_Raumstempel_Text
  6
Continuous
100
AcDbText
 10
-13.223236973336
 20
12.14852933385557
 30
0.0
 40
0.099999996026357
  1
0.00
  7
ERSTELLTER_STIL_3
 11
-13.223236973336
 21
12.24852932988193
 31
0.0
100
AcDbAttributeDefinition
  3
Gesamtlänge aller Bodenkanten
  2
ROOM_HOLES_PRM
 70
     0
 74
     3
280
     0
  0
ATTDEF
  5
26F
330
252
100
AcDbEntity
  8
01_Raumstempel_Text
  6
Continuous
100
AcDbText
 10
-13.223236973336
 20
11.952100762427
 30
0.0
 40
0.099999996026357
  1
0.15
  7
ERSTELLTER_STIL_3
 11
-13.223236973336
 21
12.05210075845336
 31
0.0
100
AcDbAttributeDefinition
  3

  2
orders_temp
 70
     0
 74
     3
280
     0
  0
ATTDEF
  5
270
330
252
100
AcDbEntity
  8
01_Raumstempel_Text
  6
Continuous
100
AcDbText
 10
-14.16804744235547
 20
11.75567219099843
 30
0.0
 40
0.099999996026357
  1
B:
  7
ERSTELLTER_STIL_3
 11
-14.16804744235547
 21
11.85567218702479
 31
0.0
100
AcDbAttributeDefinition
  3
Bodenbelag Titel
  2
floor_bez
 70
     0
 74
     3
280
     0
  0
ATTDEF
  5
271
330
252
100
AcDbEntity
  8
01_Raumstempel_Text
  6
Continuous
100
AcDbText
 10
-14.00298022697152
 20
11.75567219099843
 30
0.0
 40
0.099999996026357
  1
FST
  7
ERSTELLTER_STIL_3
 11
-14.00298022697152
 21
11.85567218702479
 31
0.0
100
AcDbAttributeDefinition
  3
Bodenbelag
  2
floor_f
 70
     0
 74
     3
280
     0
  0
ATTDEF
  5
272
330
252
100
AcDbEntity
  8
01_Raumstempel_Text
  6
Continuous
100
AcDbText
 10
-14.16804744235547
 20
11.55924361956986
 30
0.0
 40
0.099999996026357
  1
W:
  7
ERSTELLTER_STIL_3
 11
-14.16804744235547
 21
11.65924361559622
 31
0.0
100
AcDbAttributeDefinition
  3
Bezeichnung Wandbelag
  2
wall_bez
 70
     0
 74
     3
280
     0
  0
ATTDEF
  5
273
330
252
100
AcDbEntity
  8
01_Raumstempel_Text
  6
Continuous
100
AcDbText
 10
-14.00298022697152
 20
11.55924361956986
 30
0.0
 40
0.099999996026357
  1
Weissputz
  7
ERSTELLTER_STIL_3
 11
-14.00298022697152
 21
11.65924361559622
 31
0.0
100
AcDbAttributeDefinition
  3
Wandbelag Material
  2
wall_mat_0
 70
     0
 74
     3
280
     0
  0
ATTDEF
  5
274
330
252
100
AcDbEntity
  8
01_Raumstempel_Text
  6
Continuous
100
AcDbText
 10
-14.00298022697152
 20
11.36281504814128
 30
0.0
 40
0.099999996026357
  1
Weissputz
  7
ERSTELLTER_STIL_3
 11
-14.00298022697152
 21
11.46281504416764
 31
0.0
100
AcDbAttributeDefinition
  3
Wandbelag Material
  2
wall_mat_1
 70
     0
 74
     3
280
     0
  0
ATTDEF
  5
275
330
252
100
AcDbEntity
  8
01_Raumstempel_Text
  6
Continuous
100
AcDbText
 10
-14.16804744235547
 20
11.36281504814128
 30
0.0
 40
0.099999996026357
  1
D:
  7
ERSTELLTER_STIL_3
 11
-14.16804744235547
 21
11.46281504416764
 31
0.0
100
AcDbAttributeDefinition
  3
Deckenbelag Titel
  2
ceil_bez
 70
     0
 74
     3
280
     0
  0
ATTDEF
  5
276
330
252
100
AcDbEntity
  8
01_Raumstempel_Text
  6
Continuous
100
AcDbText
 10
-14.16804744235547
 20
12.34495790528414
 30
0.0
 40
0.099999996026357
  1
BF:
  7
ERSTELLTER_STIL_3
 11
-14.16804744235547
 21
12.4449579013105
 31
0.0
100
AcDbAttributeDefinition
  3
Bezeichnung Grundfläche
  2
gf_bez
 70
     0
 74
     3
280
     0
  0
ATTDEF
  5
277
330
252
100
AcDbEntity
  8
01_Raumstempel_Text
  6
Continuous
100
AcDbText
 10
-13.61150638330306
 20
12.34495790528414
 30
0.0
 40
0.099999996026357
  1
 m
  7
ERSTELLTER_STIL_3
 11
-13.61150638330306
 21
12.4449579013105
 31
0.0
100
AcDbAttributeDefinition
  3
DUMMY_558
  2
DUMMY_558
 70
     0
 74
     3
280
     0
  0
ATTDEF
  5
278
330
252
100
AcDbEntity
  8
01_Raumstempel_Text
  6
Continuous
100
AcDbText
 10
-13.45916261419495
 20
12.38591028011049
 30
0.0
 40
0.0666666688190566
  1
2
  7
ERSTELLTER_STIL_3
 11
-13.45916261419495
 21
12.45257694892955
 31
0.0
100
AcDbAttributeDefinition
  3
DUMMY_559
  2
DUMMY_559
 70
     0
 74
     3
280
     0
  0
ATTDEF
  5
279
330
252
100
AcDbEntity
  8
01_Raumstempel_Text
  6
Continuous
100
AcDbText
 10
-13.29983697029219
 20
12.14852933385557
 30
0.0
 40
0.099999996026357
  1
±
  7
ERSTELLTER_STIL_3
 72
     2
 11
-13.223236973336
 21
12.24852932988193
 31
0.0
100
AcDbAttributeDefinition
  3
DUMMY_560
  2
DUMMY_560
 70
     0
 74
     3
280
     0
  0
ATTDEF
  5
27A
330
252
100
AcDbEntity
  8
01_Raumstempel_Text
  6
Continuous
100
AcDbText
 10
-13.29933510826266
 20
11.952100762427
 30
0.0
 40
0.099999996026357
  1
-
  7
ERSTELLTER_STIL_3
 72
     2
 11
-13.2528351101104
 21
12.05210075845336
 31
0.0
100
AcDbAttributeDefinition
  3
DUMMY_561
  2
DUMMY_561
 70
     0
 74
     3
280
     0
  0
ENDBLK
  5
27D
330
252
100
AcDbEntity
  8
0
100
AcDbBlockEnd
  0
BLOCK
  5
27C
330
27B
100
AcDbEntity
  8
0
100
AcDbBlockBegin
  2
Nähen_EG-11_6
 70
     2
 10
-5.731248997554836
 20
11.43281584741161
 30
0.0
  3
Nähen_EG-11_6
  1

  0
LINE
  5
27E
102
{ACAD_XDICTIONARY
360
27F
102
}
330
27B
100
AcDbEntity
  8
01_Raumstempel_Textrahmen
  6
Continuous
100
AcDbLine
 10
-6.341260921934494
 20
10.91138727598304
 30
0.0
 11
-5.121237073175178
 21
10.91138727598304
 31
0.0
  0
LINE
  5
281
102
{ACAD_XDICTIONARY
360
282
102
}
330
27B
100
AcDbEntity
  8
01_Raumstempel_Textrahmen
  6
Continuous
100
AcDbLine
 10
-5.121237073175178
 20
10.91138727598304
 30
0.0
 11
-5.121237073175178
 21
10.51853013312589
 31
0.0
  0
LINE
  5
284
102
{ACAD_XDICTIONARY
360
285
102
}
330
27B
100
AcDbEntity
  8
01_Raumstempel_Textrahmen
  6
Continuous
100
AcDbLine
 10
-5.121237073175178
 20
10.51853013312589
 30
0.0
 11
-6.341260921934494
 21
10.51853013312589
 31
0.0
  0
LINE
  5
287
102
{ACAD_XDICTIONARY
360
288
102
}
330
27B
100
AcDbEntity
  8
01_Raumstempel_Textrahmen
  6
Continuous
100
AcDbLine
 10
-6.341260921934494
 20
10.51853013312589
 30
0.0
 11
-6.341260921934494
 21
10.91138727598304
 31
0.0
  0
LINE
  5
28A
102
{ACAD_XDICTIONARY
360
28B
102
}
330
27B
100
AcDbEntity
  8
01_Raumstempel_Textrahmen
  6
Continuous
100
AcDbLine
 10
-5.522354034905876
 20
10.91138727598304
 30
0.0
 11
-5.522354034905876
 21
10.51853013312589
 31
0.0
  0
LINE
  5
28D
102
{ACAD_XDICTIONARY
360
28E
102
}
330
27B
100
AcDbEntity
  8
01_Raumstempel_Textrahmen
  6
Continuous
100
AcDbLine
 10
-5.522354034905876
 20
10.71495870455446
 30
0.0
 11
-5.121237073175178
 21
10.71495870455446
 31
0.0
  0
ATTDEF
  5
290
102
{ACAD_XDICTIONARY
360
291
102
}
330
27B
100
AcDbEntity
  8
01_Raumstempel_Text
  6
Continuous
100
AcDbText
 10
-6.341260921934494
 20
11.19853012948338
 30
0.0
 40
0.1500000036425061
  1
Nähen
  7
ERSTELLTER_STIL_2
 11
-6.341260921934494
 21
11.34853013312589
 31
0.0
100
AcDbAttributeDefinition
  3
Raumname
  2
ROOM_NAME
 70
     0
 74
     3
280
     0
  0
ATTDEF
  5
293
102
{ACAD_XDICTIONARY
360
294
102
}
330
27B
100
AcDbEntity
  8
01_Raumstempel_Text
  6
Continuous
100
AcDbText
 10
-6.223403779077351
 20
10.64853012948338
 30
0.0
 40
0.1500000036425061
  1
EG-11
  7
ERSTELLTER_STIL_2
 11
-6.223403779077351
 21
10.79853013312589
 31
0.0
100
AcDbAttributeDefinition
  3
Raumnummer
  2
ROOM_NUMBER
 70
     0
 74
     3
280
     0
  0
ATTDEF
  5
296
330
27B
100
AcDbEntity
  8
01_Raumstempel_Text
  6
Continuous
100
AcDbText
 10
-5.40780045637963
 20
10.76888727995668
 30
0.0
 40
0.099999996026357
  1
0.00
  7
ERSTELLTER_STIL_3
 11
-5.40780045637963
 21
10.86888727598304
 31
0.0
100
AcDbAttributeDefinition
  3
Gesamtlänge aller Bodenkanten
  2
ROOM_HOLES_PRM
 70
     0
 74
     3
280
     0
  0
ATTDEF
  5
297
330
27B
100
AcDbEntity
  8
01_Raumstempel_Text
  6
Continuous
100
AcDbText
 10
-6.127912660973587
 20
10.96531585138525
 30
0.0
 40
0.099999996026357
  1
16.52
  7
ERSTELLTER_STIL_3
 11
-6.127912660973587
 21
11.06531584741161
 31
0.0
100
AcDbAttributeDefinition
  3

  2
orders_temp_0
 70
     0
 74
     3
280
     0
  0
ATTDEF
  5
298
330
27B
100
AcDbEntity
  8
01_Raumstempel_Text
  6
Continuous
100
AcDbText
 10
-5.40780045637963
 20
10.5724587085281
 30
0.0
 40
0.099999996026357
  1
0.15
  7
ERSTELLTER_STIL_3
 11
-5.40780045637963
 21
10.67245870455446
 31
0.0
100
AcDbAttributeDefinition
  3

  2
orders_temp_1
 70
     0
 74
     3
280
     0
  0
ATTDEF
  5
299
330
27B
100
AcDbEntity
  8
01_Raumstempel_Text
  6
Continuous
100
AcDbText
 10
-6.341260921934494
 20
10.37603013709953
 30
0.0
 40
0.099999996026357
  1
B:
  7
ERSTELLTER_STIL_3
 11
-6.341260921934494
 21
10.47603013312589
 31
0.0
100
AcDbAttributeDefinition
  3
Bodenbelag Titel
  2
floor_bez
 70
     0
 74
     3
280
     0
  0
ATTDEF
  5
29A
330
27B
100
AcDbEntity
  8
01_Raumstempel_Text
  6
Continuous
100
AcDbText
 10
-6.176193706550542
 20
10.37603013709953
 30
0.0
 40
0.099999996026357
  1
FST
  7
ERSTELLTER_STIL_3
 11
-6.176193706550542
 21
10.47603013312589
 31
0.0
100
AcDbAttributeDefinition
  3
Bodenbelag
  2
floor_f
 70
     0
 74
     3
280
     0
  0
ATTDEF
  5
29B
330
27B
100
AcDbEntity
  8
01_Raumstempel_Text
  6
Continuous
100
AcDbText
 10
-6.341260921934494
 20
10.17960156567096
 30
0.0
 40
0.099999996026357
  1
W:
  7
ERSTELLTER_STIL_3
 11
-6.341260921934494
 21
10.27960156169732
 31
0.0
100
AcDbAttributeDefinition
  3
Bezeichnung Wandbelag
  2
wall_bez
 70
     0
 74
     3
280
     0
  0
ATTDEF
  5
29C
330
27B
100
AcDbEntity
  8
01_Raumstempel_Text
  6
Continuous
100
AcDbText
 10
-6.176193706550542
 20
10.17960156567096
 30
0.0
 40
0.099999996026357
  1
Weissputz
  7
ERSTELLTER_STIL_3
 11
-6.176193706550542
 21
10.27960156169732
 31
0.0
100
AcDbAttributeDefinition
  3
Wandbelag Material
  2
wall_mat_0
 70
     0
 74
     3
280
     0
  0
ATTDEF
  5
29D
330
27B
100
AcDbEntity
  8
01_Raumstempel_Text
  6
Continuous
100
AcDbText
 10
-6.176193706550542
 20
9.983172994242393
 30
0.0
 40
0.099999996026357
  1
Weissputz
  7
ERSTELLTER_STIL_3
 11
-6.176193706550542
 21
10.08317299026875
 31
0.0
100
AcDbAttributeDefinition
  3
Wandbelag Material
  2
wall_mat_1
 70
     0
 74
     3
280
     0
  0
ATTDEF
  5
29E
330
27B
100
AcDbEntity
  8
01_Raumstempel_Text
  6
Continuous
100
AcDbText
 10
-6.341260921934494
 20
9.983172994242393
 30
0.0
 40
0.099999996026357
  1
D:
  7
ERSTELLTER_STIL_3
 11
-6.341260921934494
 21
10.08317299026875
 31
0.0
100
AcDbAttributeDefinition
  3
Deckenbelag Titel
  2
ceil_bez
 70
     0
 74
     3
280
     0
  0
ATTDEF
  5
29F
330
27B
100
AcDbEntity
  8
01_Raumstempel_Text
  6
Continuous
100
AcDbText
 10
-6.341260921934494
 20
10.96531585138525
 30
0.0
 40
0.099999996026357
  1
BF:
  7
ERSTELLTER_STIL_3
 11
-6.341260921934494
 21
11.06531584741161
 31
0.0
100
AcDbAttributeDefinition
  3
Bezeichnung Grundfläche
  2
gf_bez
 70
     0
 74
     3
280
     0
  0
ATTDEF
  5
2A0
330
27B
100
AcDbEntity
  8
01_Raumstempel_Text
  6
Continuous
100
AcDbText
 10
-5.784719862882083
 20
10.96531585138525
 30
0.0
 40
0.099999996026357
  1
 m
  7
ERSTELLTER_STIL_3
 11
-5.784719862882083
 21
11.06531584741161
 31
0.0
100
AcDbAttributeDefinition
  3
DUMMY_558
  2
DUMMY_558
 70
     0
 74
     3
280
     0
  0
ATTDEF
  5
2A1
330
27B
100
AcDbEntity
  8
01_Raumstempel_Text
  6
Continuous
100
AcDbText
 10
-5.632376093773972
 20
11.0062682262116
 30
0.0
 40
0.0666666688190566
  1
2
  7
ERSTELLTER_STIL_3
 11
-5.632376093773972
 21
11.07293489503066
 31
0.0
100
AcDbAttributeDefinition
  3
DUMMY_559
  2
DUMMY_559
 70
     0
 74
     3
280
     0
  0
ATTDEF
  5
2A2
330
27B
100
AcDbEntity
  8
01_Raumstempel_Text
  6
Continuous
100
AcDbText
 10
-5.484400453335819
 20
10.76888727995668
 30
0.0
 40
0.099999996026357
  1
±
  7
ERSTELLTER_STIL_3
 72
     2
 11
-5.40780045637963
 21
10.86888727598304
 31
0.0
100
AcDbAttributeDefinition
  3
DUMMY_560
  2
DUMMY_560
 70
     0
 74
     3
280
     0
  0
ATTDEF
  5
2A3
330
27B
100
AcDbEntity
  8
01_Raumstempel_Text
  6
Continuous
100
AcDbText
 10
-5.483898591306286
 20
10.5724587085281
 30
0.0
 40
0.099999996026357
  1
-
  7
ERSTELLTER_STIL_3
 72
     2
 11
-5.43739859315403
 21
10.67245870455446
 31
0.0
100
AcDbAttributeDefinition
  3
DUMMY_561
  2
DUMMY_561
 70
     0
 74
     3
280
     0
  0
ENDBLK
  5
2A6
330
27B
100
AcDbEntity
  8
0
100
AcDbBlockEnd
  0
BLOCK
  5
2A5
330
2A4
100
AcDbEntity
  8
0
100
AcDbBlockBegin
  2
Gästetoil._EG-05_7
 70
     2
 10
-14.73435108237949
 20
23.89715840588239
 30
0.0
  3
Gästetoil._EG-05_7
  1

  0
LINE
  5
2A7
102
{ACAD_XDICTIONARY
360
2A8
102
}
330
2A4
100
AcDbEntity
  8
01_Raumstempel_Textrahmen
  6
Continuous
100
AcDbLine
 10
-15.35003800849146
 20
23.37572983445382
 30
0.0
 11
-14.11866415626753
 21
23.37572983445382
 31
0.0
  0
LINE
  5
2AA
102
{ACAD_XDICTIONARY
360
2AB
102
}
330
2A4
100
AcDbEntity
  8
01_Raumstempel_Textrahmen
  6
Continuous
100
AcDbLine
 10
-14.11866415626753
 20
23.37572983445382
 30
0.0
 11
-14.11866415626753
 21
22.98287269159668
 31
0.0
  0
LINE
  5
2AD
102
{ACAD_XDICTIONARY
360
2AE
102
}
330
2A4
100
AcDbEntity
  8
01_Raumstempel_Textrahmen
  6
Continuous
100
AcDbLine
 10
-14.11866415626753
 20
22.98287269159668
 30
0.0
 11
-15.35003800849146
 21
22.98287269159668
 31
0.0
  0
LINE
  5
2B0
102
{ACAD_XDICTIONARY
360
2B1
102
}
330
2A4
100
AcDbEntity
  8
01_Raumstempel_Textrahmen
  6
Continuous
100
AcDbLine
 10
-15.35003800849146
 20
22.98287269159668
 30
0.0
 11
-15.35003800849146
 21
23.37572983445382
 31
0.0
  0
LINE
  5
2B3
102
{ACAD_XDICTIONARY
360
2B4
102
}
330
2A4
100
AcDbEntity
  8
01_Raumstempel_Textrahmen
  6
Continuous
100
AcDbLine
 10
-14.51978111799823
 20
23.37572983445382
 30
0.0
 11
-14.51978111799823
 21
22.98287269159668
 31
0.0
  0
LINE
  5
2B6
102
{ACAD_XDICTIONARY
360
2B7
102
}
330
2A4
100
AcDbEntity
  8
01_Raumstempel_Textrahmen
  6
Continuous
100
AcDbLine
 10
-14.51978111799823
 20
23.17930126302525
 30
0.0
 11
-14.11866415626753
 21
23.17930126302525
 31
0.0
  0
ATTDEF
  5
2B9
102
{ACAD_XDICTIONARY
360
2BA
102
}
330
2A4
100
AcDbEntity
  8
01_Raumstempel_Text
  6
Continuous
100
AcDbText
 10
-15.35003800849146
 20
23.66287268795416
 30
0.0
 40
0.1500000036425061
  1
Gästetoil.
  7
ERSTELLTER_STIL_2
 11
-15.35003800849146
 21
23.81287269159667
 31
0.0
100
AcDbAttributeDefinition
  3
Raumname
  2
ROOM_NAME
 70
     0
 74
     3
280
     0
  0
ATTDEF
  5
2BC
102
{ACAD_XDICTIONARY
360
2BD
102
}
330
2A4
100
AcDbEntity
  8
01_Raumstempel_Text
  6
Continuous
100
AcDbText
 10
-15.23218086563431
 20
23.11287268795416
 30
0.0
 40
0.1500000036425061
  1
EG-05
  7
ERSTELLTER_STIL_2
 11
-15.23218086563431
 21
23.26287269159667
 31
0.0
100
AcDbAttributeDefinition
  3
Raumnummer
  2
ROOM_NUMBER
 70
     0
 74
     3
280
     0
  0
ATTDEF
  5
2BF
330
2A4
100
AcDbEntity
  8
01_Raumstempel_Text
  6
Continuous
100
AcDbText
 10
-15.13668974753055
 20
23.42965840985603
 30
0.0
 40
0.099999996026357
  1
7.15
  7
ERSTELLTER_STIL_3
 11
-15.13668974753055
 21
23.52965840588239
 31
0.0
100
AcDbAttributeDefinition
  3
Gemessene Fläche
  2
ROOM_AREA
 70
     0
 74
     3
280
     0
  0
ATTDEF
  5
2C0
330
2A4
100
AcDbEntity
  8
01_Raumstempel_Text
  6
Continuous
100
AcDbText
 10
-14.40522753947198
 20
23.23322983842746
 30
0.0
 40
0.099999996026357
  1
0.00
  7
ERSTELLTER_STIL_3
 11
-14.40522753947198
 21
23.33322983445382
 31
0.0
100
AcDbAttributeDefinition
  3
Gesamtlänge aller Bodenkanten
  2
ROOM_HOLES_PRM
 70
     0
 74
     3
280
     0
  0
ATTDEF
  5
2C1
330
2A4
100
AcDbEntity
  8
01_Raumstempel_Text
  6
Continuous
100
AcDbText
 10
-14.40522753947198
 20
23.03680126699889
 30
0.0
 40
0.099999996026357
  1
0.15
  7
ERSTELLTER_STIL_3
 11
-14.40522753947198
 21
23.13680126302525
 31
0.0
100
AcDbAttributeDefinition
  3

  2
orders_temp
 70
     0
 74
     3
280
     0
  0
ATTDEF
  5
2C2
330
2A4
100
AcDbEntity
  8
01_Raumstempel_Text
  6
Continuous
100
AcDbText
 10
-15.35003800849146
 20
22.84037269557032
 30
0.0
 40
0.099999996026357
  1
B:
  7
ERSTELLTER_STIL_3
 11
-15.35003800849146
 21
22.94037269159668
 31
0.0
100
AcDbAttributeDefinition
  3
Bodenbelag Titel
  2
floor_bez
 70
     0
 74
     3
280
     0
  0
ATTDEF
  5
2C3
330
2A4
100
AcDbEntity
  8
01_Raumstempel_Text
  6
Continuous
100
AcDbText
 10
-15.1849707931075
 20
22.84037269557032
 30
0.0
 40
0.099999996026357
  1
Platten FST
  7
ERSTELLTER_STIL_3
 11
-15.1849707931075
 21
22.94037269159668
 31
0.0
100
AcDbAttributeDefinition
  3
Bodenbelag
  2
floor_f
 70
     0
 74
     3
280
     0
  0
ATTDEF
  5
2C4
330
2A4
100
AcDbEntity
  8
01_Raumstempel_Text
  6
Continuous
100
AcDbText
 10
-15.35003800849146
 20
22.64394412414175
 30
0.0
 40
0.099999996026357
  1
W:
  7
ERSTELLTER_STIL_3
 11
-15.35003800849146
 21
22.74394412016811
 31
0.0
100
AcDbAttributeDefinition
  3
Bezeichnung Wandbelag
  2
wall_bez
 70
     0
 74
     3
280
     0
  0
ATTDEF
  5
2C5
330
2A4
100
AcDbEntity
  8
01_Raumstempel_Text
  6
Continuous
100
AcDbText
 10
-15.1849707931075
 20
22.64394412414175
 30
0.0
 40
0.099999996026357
  1
Weissputz/FST
  7
ERSTELLTER_STIL_3
 11
-15.1849707931075
 21
22.74394412016811
 31
0.0
100
AcDbAttributeDefinition
  3
Wandbelag Material
  2
wall_mat
 70
     0
 74
     3
280
     0
  0
ATTDEF
  5
2C6
330
2A4
100
AcDbEntity
  8
01_Raumstempel_Text
  6
Continuous
100
AcDbText
 10
-15.35003800849146
 20
22.44751555271317
 30
0.0
 40
0.099999996026357
  1
D:
  7
ERSTELLTER_STIL_3
 11
-15.35003800849146
 21
22.54751554873953
 31
0.0
100
AcDbAttributeDefinition
  3
Deckenbelag Titel
  2
ceil_bez
 70
     0
 74
     3
280
     0
  0
ATTDEF
  5
2C7
330
2A4
100
AcDbEntity
  8
01_Raumstempel_Text
  6
Continuous
100
AcDbText
 10
-15.1849707931075
 20
22.44751555271317
 30
0.0
 40
0.099999996026357
  1
Weissputz
  7
ERSTELLTER_STIL_3
 11
-15.1849707931075
 21
22.54751554873953
 31
0.0
100
AcDbAttributeDefinition
  3
Deckenbelag
  2
ceil_mat
 70
     0
 74
     3
280
     0
  0
ATTDEF
  5
2C8
330
2A4
100
AcDbEntity
  8
01_Raumstempel_Text
  6
Continuous
100
AcDbText
 10
-15.35003800849146
 20
23.42965840985603
 30
0.0
 40
0.099999996026357
  1
BF:
  7
ERSTELLTER_STIL_3
 11
-15.35003800849146
 21
23.52965840588239
 31
0.0
100
AcDbAttributeDefinition
  3
Bezeichnung Grundfläche
  2
gf_bez
 70
     0
 74
     3
280
     0
  0
ATTDEF
  5
2C9
330
2A4
100
AcDbEntity
  8
01_Raumstempel_Text
  6
Continuous
100
AcDbText
 10
-14.86976922146895
 20
23.42965840985603
 30
0.0
 40
0.099999996026357
  1
 m
  7
ERSTELLTER_STIL_3
 11
-14.86976922146895
 21
23.52965840588239
 31
0.0
100
AcDbAttributeDefinition
  3
DUMMY_558
  2
DUMMY_558
 70
     0
 74
     3
280
     0
  0
ATTDEF
  5
2CA
330
2A4
100
AcDbEntity
  8
01_Raumstempel_Text
  6
Continuous
100
AcDbText
 10
-14.71742545236084
 20
23.47061078468238
 30
0.0
 40
0.0666666688190566
  1
2
  7
ERSTELLTER_STIL_3
 11
-14.71742545236084
 21
23.53727745350144
 31
0.0
100
AcDbAttributeDefinition
  3
DUMMY_559
  2
DUMMY_559
 70
     0
 74
     3
280
     0
  0
ATTDEF
  5
2CB
330
2A4
100
AcDbEntity
  8
01_Raumstempel_Text
  6
Continuous
100
AcDbText
 10
-14.48182753642817
 20
23.23322983842746
 30
0.0
 40
0.099999996026357
  1
±
  7
ERSTELLTER_STIL_3
 72
     2
 11
-14.40522753947198
 21
23.33322983445382
 31
0.0
100
AcDbAttributeDefinition
  3
DUMMY_560
  2
DUMMY_560
 70
     0
 74
     3
280
     0
  0
ATTDEF
  5
2CC
330
2A4
100
AcDbEntity
  8
01_Raumstempel_Text
  6
Continuous
100
AcDbText
 10
-14.48132567439864
 20
23.03680126699889
 30
0.0
 40
0.099999996026357
  1
-
  7
ERSTELLTER_STIL_3
 72
     2
 11
-14.43482567624638
 21
23.13680126302525
 31
0.0
100
AcDbAttributeDefinition
  3
DUMMY_561
  2
DUMMY_561
 70
     0
 74
     3
280
     0
  0
ENDBLK
  5
2CF
330
2A4
100
AcDbEntity
  8
0
100
AcDbBlockEnd
  0
BLOCK
  5
2CE
330
2CD
100
AcDbEntity
  8
0
100
AcDbBlockBegin
  2
Reduit_EG-06_8
 70
     2
 10
-12.29915581237627
 20
23.89715840588239
 30
0.0
  3
Reduit_EG-06_8
  1

  0
LINE
  5
2D0
102
{ACAD_XDICTIONARY
360
2D1
102
}
330
2CD
100
AcDbEntity
  8
01_Raumstempel_Textrahmen
  6
Continuous
100
AcDbLine
 10
-12.85317713058197
 20
23.36186428823533
 30
0.0
 11
-11.74513449417058
 21
23.36186428823533
 31
0.0
  0
LINE
  5
2D3
102
{ACAD_XDICTIONARY
360
2D4
102
}
330
2CD
100
AcDbEntity
  8
01_Raumstempel_Textrahmen
  6
Continuous
100
AcDbLine
 10
-11.74513449417058
 20
23.36186428823533
 30
0.0
 11
-11.74513449417058
 21
22.95745252352945
 31
0.0
  0
LINE
  5
2D6
102
{ACAD_XDICTIONARY
360
2D7
102
}
330
2CD
100
AcDbEntity
  8
01_Raumstempel_Textrahmen
  6
Continuous
100
AcDbLine
 10
-11.74513449417058
 20
22.95745252352945
 30
0.0
 11
-12.85317713058197
 21
22.95745252352945
 31
0.0
  0
LINE
  5
2D9
102
{ACAD_XDICTIONARY
360
2DA
102
}
330
2CD
100
AcDbEntity
  8
01_Raumstempel_Textrahmen
  6
Continuous
100
AcDbLine
 10
-12.85317713058197
 20
22.95745252352945
 30
0.0
 11
-12.85317713058197
 21
23.36186428823533
 31
0.0
  0
LINE
  5
2DC
102
{ACAD_XDICTIONARY
360
2DD
102
}
330
2CD
100
AcDbEntity
  8
01_Raumstempel_Textrahmen
  6
Continuous
100
AcDbLine
 10
-12.10862289757348
 20
23.36186428823533
 30
0.0
 11
-12.10862289757348
 21
22.95745252352945
 31
0.0
  0
LINE
  5
2DF
102
{ACAD_XDICTIONARY
360
2E0
102
}
330
2CD
100
AcDbEntity
  8
01_Raumstempel_Textrahmen
  6
Continuous
100
AcDbLine
 10
-12.10862289757348
 20
23.15965840588239
 30
0.0
 11
-11.74513449417058
 21
23.15965840588239
 31
0.0
  0
ATTDEF
  5
2E2
102
{ACAD_XDICTIONARY
360
2E3
102
}
330
2CD
100
AcDbEntity
  8
01_Raumstempel_Text
  6
Continuous
100
AcDbText
 10
-12.85317713058197
 20
23.65021446841635
 30
0.0
 40
0.1500000036425061
  1
Reduit
  7
ERSTELLTER_STIL_4
 11
-12.85317713058197
 21
23.80021447205886
 31
0.0
100
AcDbAttributeDefinition
  3
Raumname
  2
ROOM_NAME
 70
     0
 74
     3
280
     0
  0
ATTDEF
  5
2E5
102
{ACAD_XDICTIONARY
360
2E6
102
}
330
2CD
100
AcDbEntity
  8
01_Raumstempel_Text
  6
Continuous
100
AcDbText
 10
-12.7318536011702
 20
23.08662301621047
 30
0.0
 40
0.1500000036425061
  1
EG-06
  7
ERSTELLTER_STIL_4
 11
-12.7318536011702
 21
23.23662301985298
 31
0.0
100
AcDbAttributeDefinition
  3
Raumnummer
  2
ROOM_NUMBER
 70
     0
 74
     3
280
     0
  0
ATTDEF
  5
2E8
330
2CD
100
AcDbEntity
  8
01_Raumstempel_Text
  6
Continuous
100
AcDbText
 10
-12.67305268220477
 20
23.41296723338544
 30
0.0
 40
0.099999996026357
  1
7.65
  7
ERSTELLTER_STIL_5
 11
-12.67305268220477
 21
23.5129672294118
 31
0.0
100
AcDbAttributeDefinition
  3
Gemessene Fläche
  2
ROOM_AREA
 70
     0
 74
     3
280
     0
  0
ATTDEF
  5
2E9
330
2CD
100
AcDbEntity
  8
01_Raumstempel_Text
  6
Continuous
100
AcDbText
 10
-11.99070009092361
 20
23.2107613510325
 30
0.0
 40
0.099999996026357
  1
0.00
  7
ERSTELLTER_STIL_5
 11
-11.99070009092361
 21
23.31076134705886
 31
0.0
100
AcDbAttributeDefinition
  3
Gesamtlänge aller Bodenkanten
  2
ROOM_HOLES_PRM
 70
     0
 74
     3
280
     0
  0
ATTDEF
  5
2EA
330
2CD
100
AcDbEntity
  8
01_Raumstempel_Text
  6
Continuous
100
AcDbText
 10
-11.99070009092361
 20
23.00855546867956
 30
0.0
 40
0.099999996026357
  1
0.15
  7
ERSTELLTER_STIL_5
 11
-11.99070009092361
 21
23.10855546470592
 31
0.0
100
AcDbAttributeDefinition
  3

  2
orders_temp
 70
     0
 74
     3
280
     0
  0
ATTDEF
  5
2EB
330
2CD
100
AcDbEntity
  8
01_Raumstempel_Text
  6
Continuous
100
AcDbText
 10
-12.85317713058197
 20
22.80593598338544
 30
0.0
 40
0.099999996026357
  1
B:
  7
ERSTELLTER_STIL_5
 11
-12.85317713058197
 21
22.9059359794118
 31
0.0
100
AcDbAttributeDefinition
  3
Bodenbelag Titel
  2
floor_bez
 70
     0
 74
     3
280
     0
  0
ATTDEF
  5
2EC
330
2CD
100
AcDbEntity
  8
01_Raumstempel_Text
  6
Continuous
100
AcDbText
 10
-12.7137238240812
 20
22.80765932897368
 30
0.0
 40
0.099999996026357
  1
FST
  7
ERSTELLTER_STIL_5
 11
-12.7137238240812
 21
22.90765932500004
 31
0.0
100
AcDbAttributeDefinition
  3
Bodenbelag
  2
floor_f
 70
     0
 74
     3
280
     0
  0
ATTDEF
  5
2ED
330
2CD
100
AcDbEntity
  8
01_Raumstempel_Text
  6
Continuous
100
AcDbText
 10
-12.85317713058197
 20
22.6037301010325
 30
0.0
 40
0.099999996026357
  1
W:
  7
ERSTELLTER_STIL_5
 11
-12.85317713058197
 21
22.70373009705886
 31
0.0
100
AcDbAttributeDefinition
  3
Bezeichnung Wandbelag
  2
wall_bez
 70
     0
 74
     3
280
     0
  0
ATTDEF
  5
2EE
330
2CD
100
AcDbEntity
  8
01_Raumstempel_Text
  6
Continuous
100
AcDbText
 10
-12.7137238240812
 20
22.6037301010325
 30
0.0
 40
0.099999996026357
  1
Weissputz
  7
ERSTELLTER_STIL_5
 11
-12.7137238240812
 21
22.70373009705886
 31
0.0
100
AcDbAttributeDefinition
  3
Wandbelag Material
  2
wall_mat_0
 70
     0
 74
     3
280
     0
  0
ATTDEF
  5
2EF
330
2CD
100
AcDbEntity
  8
01_Raumstempel_Text
  6
Continuous
100
AcDbText
 10
-12.7137238240812
 20
22.40152421867956
 30
0.0
 40
0.099999996026357
  1
Weissputz
  7
ERSTELLTER_STIL_5
 11
-12.7137238240812
 21
22.50152421470592
 31
0.0
100
AcDbAttributeDefinition
  3
Wandbelag Material
  2
wall_mat_1
 70
     0
 74
     3
280
     0
  0
ATTDEF
  5
2F0
330
2CD
100
AcDbEntity
  8
01_Raumstempel_Text
  6
Continuous
100
AcDbText
 10
-12.85317713058197
 20
22.40152421867956
 30
0.0
 40
0.099999996026357
  1
D:
  7
ERSTELLTER_STIL_5
 11
-12.85317713058197
 21
22.50152421470592
 31
0.0
100
AcDbAttributeDefinition
  3
Deckenbelag Titel
  2
ceil_bez
 70
     0
 74
     3
280
     0
  0
ATTDEF
  5
2F1
330
2CD
100
AcDbEntity
  8
01_Raumstempel_Text
  6
Continuous
100
AcDbText
 10
-12.85317713058197
 20
23.41255363044427
 30
0.0
 40
0.099999996026357
  1
BF:
  7
ERSTELLTER_STIL_5
 11
-12.85317713058197
 21
23.51255362647063
 31
0.0
100
AcDbAttributeDefinition
  3
Bezeichnung Grundfläche
  2
gf_bez
 70
     0
 74
     3
280
     0
  0
ATTDEF
  5
2F2
330
2CD
100
AcDbEntity
  8
01_Raumstempel_Text
  6
Continuous
100
AcDbText
 10
-12.44770767368703
 20
23.41149664515015
 30
0.0
 40
0.099999996026357
  1
 m
  7
ERSTELLTER_STIL_5
 11
-12.44770767368703
 21
23.51149664117651
 31
0.0
100
AcDbAttributeDefinition
  3
DUMMY_558
  2
DUMMY_558
 70
     0
 74
     3
280
     0
  0
ATTDEF
  5
2F3
330
2CD
100
AcDbEntity
  8
01_Raumstempel_Text
  6
Continuous
100
AcDbText
 10
-12.31907667011409
 20
23.4565946782398
 30
0.0
 40
0.0666666688190566
  1
2
  7
ERSTELLTER_STIL_5
 11
-12.31907667011409
 21
23.52326134705886
 31
0.0
100
AcDbAttributeDefinition
  3
DUMMY_559
  2
DUMMY_559
 70
     0
 74
     3
280
     0
  0
ATTDEF
  5
2F4
330
2CD
100
AcDbEntity
  8
01_Raumstempel_Text
  6
Continuous
100
AcDbText
 10
-12.0673000878798
 20
23.20929076279721
 30
0.0
 40
0.099999996026357
  1
±
  7
ERSTELLTER_STIL_5
 72
     2
 11
-11.99070009092361
 21
23.30929075882357
 31
0.0
100
AcDbAttributeDefinition
  3
DUMMY_560
  2
DUMMY_560
 70
     0
 74
     3
280
     0
  0
ATTDEF
  5
2F5
330
2CD
100
AcDbEntity
  8
01_Raumstempel_Text
  6
Continuous
100
AcDbText
 10
-12.07614767571423
 20
23.00708488044427
 30
0.0
 40
0.099999996026357
  1
-
  7
ERSTELLTER_STIL_5
 72
     2
 11
-12.02964767756197
 21
23.10708487647063
 31
0.0
100
AcDbAttributeDefinition
  3
DUMMY_561
  2
DUMMY_561
 70
     0
 74
     3
280
     0
  0
ENDBLK
  5
2F8
330
2CD
100
AcDbEntity
  8
0
100
AcDbBlockEnd
  0
BLOCK
  5
2F7
330
2F6
100
AcDbEntity
  8
0
100
AcDbBlockBegin
  2
Entrée_EG-09_9
 70
     2
 10
-7.449500138192922
 20
17.85453312727542
 30
0.0
  3
Entrée_EG-09_9
  1

  0
LINE
  5
2F9
102
{ACAD_XDICTIONARY
360
2FA
102
}
330
2F6
100
AcDbEntity
  8
01_Raumstempel_Textrahmen
  6
Continuous
100
AcDbLine
 10
-8.065187064304885
 20
17.33310455584685
 30
0.0
 11
-6.833813212080958
 21
17.33310455584685
 31
0.0
  0
LINE
  5
2FC
102
{ACAD_XDICTIONARY
360
2FD
102
}
330
2F6
100
AcDbEntity
  8
01_Raumstempel_Textrahmen
  6
Continuous
100
AcDbLine
 10
-6.833813212080958
 20
17.33310455584685
 30
0.0
 11
-6.833813212080958
 21
16.94024741298971
 31
0.0
  0
LINE
  5
2FF
102
{ACAD_XDICTIONARY
360
300
102
}
330
2F6
100
AcDbEntity
  8
01_Raumstempel_Textrahmen
  6
Continuous
100
AcDbLine
 10
-6.833813212080958
 20
16.94024741298971
 30
0.0
 11
-8.065187064304885
 21
16.94024741298971
 31
0.0
  0
LINE
  5
302
102
{ACAD_XDICTIONARY
360
303
102
}
330
2F6
100
AcDbEntity
  8
01_Raumstempel_Textrahmen
  6
Continuous
100
AcDbLine
 10
-8.065187064304885
 20
16.94024741298971
 30
0.0
 11
-8.065187064304885
 21
17.33310455584685
 31
0.0
  0
LINE
  5
305
102
{ACAD_XDICTIONARY
360
306
102
}
330
2F6
100
AcDbEntity
  8
01_Raumstempel_Textrahmen
  6
Continuous
100
AcDbLine
 10
-7.234930173811656
 20
17.33310455584685
 30
0.0
 11
-7.234930173811656
 21
16.94024741298971
 31
0.0
  0
LINE
  5
308
102
{ACAD_XDICTIONARY
360
309
102
}
330
2F6
100
AcDbEntity
  8
01_Raumstempel_Textrahmen
  6
Continuous
100
AcDbLine
 10
-7.234930173811656
 20
17.13667598441828
 30
0.0
 11
-6.833813212080958
 21
17.13667598441828
 31
0.0
  0
ATTDEF
  5
30B
102
{ACAD_XDICTIONARY
360
30C
102
}
330
2F6
100
AcDbEntity
  8
01_Raumstempel_Text
  6
Continuous
100
AcDbText
 10
-8.065187064304885
 20
17.62024740934719
 30
0.0
 40
0.1500000036425061
  1
Entrée
  7
ERSTELLTER_STIL_2
 11
-8.065187064304885
 21
17.7702474129897
 31
0.0
100
AcDbAttributeDefinition
  3
Raumname
  2
ROOM_NAME
 70
     0
 74
     3
280
     0
  0
ATTDEF
  5
30E
102
{ACAD_XDICTIONARY
360
30F
102
}
330
2F6
100
AcDbEntity
  8
01_Raumstempel_Text
  6
Continuous
100
AcDbText
 10
-7.947329921447742
 20
17.07024740934719
 30
0.0
 40
0.1500000036425061
  1
EG-09
  7
ERSTELLTER_STIL_2
 11
-7.947329921447742
 21
17.2202474129897
 31
0.0
100
AcDbAttributeDefinition
  3
Raumnummer
  2
ROOM_NUMBER
 70
     0
 74
     3
280
     0
  0
ATTDEF
  5
311
330
2F6
100
AcDbEntity
  8
01_Raumstempel_Text
  6
Continuous
100
AcDbText
 10
-7.851838803343978
 20
17.38703313124906
 30
0.0
 40
0.099999996026357
  1
6.57
  7
ERSTELLTER_STIL_3
 11
-7.851838803343978
 21
17.48703312727542
 31
0.0
100
AcDbAttributeDefinition
  3
Gemessene Fläche
  2
ROOM_AREA
 70
     0
 74
     3
280
     0
  0
ATTDEF
  5
312
330
2F6
100
AcDbEntity
  8
01_Raumstempel_Text
  6
Continuous
100
AcDbText
 10
-7.120376595285411
 20
17.19060455982049
 30
0.0
 40
0.099999996026357
  1
0.00
  7
ERSTELLTER_STIL_3
 11
-7.120376595285411
 21
17.29060455584685
 31
0.0
100
AcDbAttributeDefinition
  3
Gesamtlänge aller Bodenkanten
  2
ROOM_HOLES_PRM
 70
     0
 74
     3
280
     0
  0
ATTDEF
  5
313
330
2F6
100
AcDbEntity
  8
01_Raumstempel_Text
  6
Continuous
100
AcDbText
 10
-7.120376595285411
 20
16.99417598839192
 30
0.0
 40
0.099999996026357
  1
0.15
  7
ERSTELLTER_STIL_3
 11
-7.120376595285411
 21
17.09417598441828
 31
0.0
100
AcDbAttributeDefinition
  3

  2
orders_temp
 70
     0
 74
     3
280
     0
  0
ATTDEF
  5
314
330
2F6
100
AcDbEntity
  8
01_Raumstempel_Text
  6
Continuous
100
AcDbText
 10
-8.065187064304885
 20
16.79774741696335
 30
0.0
 40
0.099999996026357
  1
B:
  7
ERSTELLTER_STIL_3
 11
-8.065187064304885
 21
16.89774741298971
 31
0.0
100
AcDbAttributeDefinition
  3
Bodenbelag Titel
  2
floor_bez
 70
     0
 74
     3
280
     0
  0
ATTDEF
  5
315
330
2F6
100
AcDbEntity
  8
01_Raumstempel_Text
  6
Continuous
100
AcDbText
 10
-7.900119848920933
 20
16.79774741696335
 30
0.0
 40
0.099999996026357
  1
FST
  7
ERSTELLTER_STIL_3
 11
-7.900119848920933
 21
16.89774741298971
 31
0.0
100
AcDbAttributeDefinition
  3
Bodenbelag
  2
floor_f
 70
     0
 74
     3
280
     0
  0
ATTDEF
  5
316
330
2F6
100
AcDbEntity
  8
01_Raumstempel_Text
  6
Continuous
100
AcDbText
 10
-8.065187064304885
 20
16.60131884553478
 30
0.0
 40
0.099999996026357
  1
W:
  7
ERSTELLTER_STIL_3
 11
-8.065187064304885
 21
16.70131884156114
 31
0.0
100
AcDbAttributeDefinition
  3
Bezeichnung Wandbelag
  2
wall_bez
 70
     0
 74
     3
280
     0
  0
ATTDEF
  5
317
330
2F6
100
AcDbEntity
  8
01_Raumstempel_Text
  6
Continuous
100
AcDbText
 10
-7.900119848920933
 20
16.60131884553478
 30
0.0
 40
0.099999996026357
  1
Weissputz
  7
ERSTELLTER_STIL_3
 11
-7.900119848920933
 21
16.70131884156114
 31
0.0
100
AcDbAttributeDefinition
  3
Wandbelag Material
  2
wall_mat_0
 70
     0
 74
     3
280
     0
  0
ATTDEF
  5
318
330
2F6
100
AcDbEntity
  8
01_Raumstempel_Text
  6
Continuous
100
AcDbText
 10
-7.900119848920933
 20
16.4048902741062
 30
0.0
 40
0.099999996026357
  1
Weissputz
  7
ERSTELLTER_STIL_3
 11
-7.900119848920933
 21
16.50489027013256
 31
0.0
100
AcDbAttributeDefinition
  3
Wandbelag Material
  2
wall_mat_1
 70
     0
 74
     3
280
     0
  0
ATTDEF
  5
319
330
2F6
100
AcDbEntity
  8
01_Raumstempel_Text
  6
Continuous
100
AcDbText
 10
-8.065187064304885
 20
16.4048902741062
 30
0.0
 40
0.099999996026357
  1
D:
  7
ERSTELLTER_STIL_3
 11
-8.065187064304885
 21
16.50489027013256
 31
0.0
100
AcDbAttributeDefinition
  3
Deckenbelag Titel
  2
ceil_bez
 70
     0
 74
     3
280
     0
  0
ATTDEF
  5
31A
330
2F6
100
AcDbEntity
  8
01_Raumstempel_Text
  6
Continuous
100
AcDbText
 10
-8.065187064304885
 20
17.38703313124906
 30
0.0
 40
0.099999996026357
  1
BF:
  7
ERSTELLTER_STIL_3
 11
-8.065187064304885
 21
17.48703312727542
 31
0.0
100
AcDbAttributeDefinition
  3
Bezeichnung Grundfläche
  2
gf_bez
 70
     0
 74
     3
280
     0
  0
ATTDEF
  5
31B
330
2F6
100
AcDbEntity
  8
01_Raumstempel_Text
  6
Continuous
100
AcDbText
 10
-7.584918277282382
 20
17.38703313124906
 30
0.0
 40
0.099999996026357
  1
 m
  7
ERSTELLTER_STIL_3
 11
-7.584918277282382
 21
17.48703312727542
 31
0.0
100
AcDbAttributeDefinition
  3
DUMMY_558
  2
DUMMY_558
 70
     0
 74
     3
280
     0
  0
ATTDEF
  5
31C
330
2F6
100
AcDbEntity
  8
01_Raumstempel_Text
  6
Continuous
100
AcDbText
 10
-7.432574508174271
 20
17.42798550607541
 30
0.0
 40
0.0666666688190566
  1
2
  7
ERSTELLTER_STIL_3
 11
-7.432574508174271
 21
17.49465217489447
 31
0.0
100
AcDbAttributeDefinition
  3
DUMMY_559
  2
DUMMY_559
 70
     0
 74
     3
280
     0
  0
ATTDEF
  5
31D
330
2F6
100
AcDbEntity
  8
01_Raumstempel_Text
  6
Continuous
100
AcDbText
 10
-7.1969765922416
 20
17.19060455982049
 30
0.0
 40
0.099999996026357
  1
±
  7
ERSTELLTER_STIL_3
 72
     2
 11
-7.120376595285411
 21
17.29060455584685
 31
0.0
100
AcDbAttributeDefinition
  3
DUMMY_560
  2
DUMMY_560
 70
     0
 74
     3
280
     0
  0
ATTDEF
  5
31E
330
2F6
100
AcDbEntity
  8
01_Raumstempel_Text
  6
Continuous
100
AcDbText
 10
-7.196474730212066
 20
16.99417598839192
 30
0.0
 40
0.099999996026357
  1
-
  7
ERSTELLTER_STIL_3
 72
     2
 11
-7.14997473205981
 21
17.09417598441828
 31
0.0
100
AcDbAttributeDefinition
  3
DUMMY_561
  2
DUMMY_561
 70
     0
 74
     3
280
     0
  0
ENDBLK
  5
321
330
2F6
100
AcDbEntity
  8
0
100
AcDbBlockEnd
  0
BLOCK
  5
320
330
31F
100
AcDbEntity
  8
0
100
AcDbBlockBegin
  2
Vorraum_EG-07_10
 70
     2
 10
-9.673215361572638
 20
19.48523926276015
 30
0.0
  3
Vorraum_EG-07_10
  1

  0
LINE
  5
322
102
{ACAD_XDICTIONARY
360
323
102
}
330
31F
100
AcDbEntity
  8
01_Raumstempel_Textrahmen
  6
Continuous
100
AcDbLine
 10
-10.2889022876846
 20
18.96381069133158
 30
0.0
 11
-9.057528435460675
 21
18.96381069133158
 31
0.0
  0
LINE
  5
325
102
{ACAD_XDICTIONARY
360
326
102
}
330
31F
100
AcDbEntity
  8
01_Raumstempel_Textrahmen
  6
Continuous
100
AcDbLine
 10
-9.057528435460675
 20
18.96381069133158
 30
0.0
 11
-9.057528435460675
 21
18.57095354847444
 31
0.0
  0
LINE
  5
328
102
{ACAD_XDICTIONARY
360
329
102
}
330
31F
100
AcDbEntity
  8
01_Raumstempel_Textrahmen
  6
Continuous
100
AcDbLine
 10
-9.057528435460675
 20
18.57095354847444
 30
0.0
 11
-10.2889022876846
 21
18.57095354847444
 31
0.0
  0
LINE
  5
32B
102
{ACAD_XDICTIONARY
360
32C
102
}
330
31F
100
AcDbEntity
  8
01_Raumstempel_Textrahmen
  6
Continuous
100
AcDbLine
 10
-10.2889022876846
 20
18.57095354847444
 30
0.0
 11
-10.2889022876846
 21
18.96381069133158
 31
0.0
  0
LINE
  5
32E
102
{ACAD_XDICTIONARY
360
32F
102
}
330
31F
100
AcDbEntity
  8
01_Raumstempel_Textrahmen
  6
Continuous
100
AcDbLine
 10
-9.458645397191372
 20
18.96381069133158
 30
0.0
 11
-9.458645397191372
 21
18.57095354847444
 31
0.0
  0
LINE
  5
331
102
{ACAD_XDICTIONARY
360
332
102
}
330
31F
100
AcDbEntity
  8
01_Raumstempel_Textrahmen
  6
Continuous
100
AcDbLine
 10
-9.458645397191372
 20
18.76738211990301
 30
0.0
 11
-9.057528435460675
 21
18.76738211990301
 31
0.0
  0
ATTDEF
  5
334
102
{ACAD_XDICTIONARY
360
335
102
}
330
31F
100
AcDbEntity
  8
01_Raumstempel_Text
  6
Continuous
100
AcDbText
 10
-10.2889022876846
 20
19.25095354483193
 30
0.0
 40
0.1500000036425061
  1
Vorraum
  7
ERSTELLTER_STIL_2
 11
-10.2889022876846
 21
19.40095354847444
 31
0.0
100
AcDbAttributeDefinition
  3
Raumname
  2
ROOM_NAME
 70
     0
 74
     3
280
     0
  0
ATTDEF
  5
337
102
{ACAD_XDICTIONARY
360
338
102
}
330
31F
100
AcDbEntity
  8
01_Raumstempel_Text
  6
Continuous
100
AcDbText
 10
-10.17104514482746
 20
18.70095354483193
 30
0.0
 40
0.1500000036425061
  1
EG-07
  7
ERSTELLTER_STIL_2
 11
-10.17104514482746
 21
18.85095354847444
 31
0.0
100
AcDbAttributeDefinition
  3
Raumnummer
  2
ROOM_NUMBER
 70
     0
 74
     3
280
     0
  0
ATTDEF
  5
33A
330
31F
100
AcDbEntity
  8
01_Raumstempel_Text
  6
Continuous
100
AcDbText
 10
-10.07555402672369
 20
19.01773926673379
 30
0.0
 40
0.099999996026357
  1
21.82
  7
ERSTELLTER_STIL_3
 11
-10.07555402672369
 21
19.11773926276015
 31
0.0
100
AcDbAttributeDefinition
  3
Gemessene Fläche
  2
ROOM_AREA
 70
     0
 74
     3
280
     0
  0
ATTDEF
  5
33B
330
31F
100
AcDbEntity
  8
01_Raumstempel_Text
  6
Continuous
100
AcDbText
 10
-9.344091818665127
 20
18.82131069530522
 30
0.0
 40
0.099999996026357
  1
0.00
  7
ERSTELLTER_STIL_3
 11
-9.344091818665127
 21
18.92131069133158
 31
0.0
100
AcDbAttributeDefinition
  3
Gesamtlänge aller Bodenkanten
  2
ROOM_HOLES_PRM
 70
     0
 74
     3
280
     0
  0
ATTDEF
  5
33C
330
31F
100
AcDbEntity
  8
01_Raumstempel_Text
  6
Continuous
100
AcDbText
 10
-9.344091818665127
 20
18.62488212387665
 30
0.0
 40
0.099999996026357
  1
0.15
  7
ERSTELLTER_STIL_3
 11
-9.344091818665127
 21
18.72488211990301
 31
0.0
100
AcDbAttributeDefinition
  3

  2
orders_temp
 70
     0
 74
     3
280
     0
  0
ATTDEF
  5
33D
330
31F
100
AcDbEntity
  8
01_Raumstempel_Text
  6
Continuous
100
AcDbText
 10
-10.2889022876846
 20
18.42845355244808
 30
0.0
 40
0.099999996026357
  1
B:
  7
ERSTELLTER_STIL_3
 11
-10.2889022876846
 21
18.52845354847444
 31
0.0
100
AcDbAttributeDefinition
  3
Bodenbelag Titel
  2
floor_bez
 70
     0
 74
     3
280
     0
  0
ATTDEF
  5
33E
330
31F
100
AcDbEntity
  8
01_Raumstempel_Text
  6
Continuous
100
AcDbText
 10
-10.12383507230065
 20
18.42845355244808
 30
0.0
 40
0.099999996026357
  1
FST
  7
ERSTELLTER_STIL_3
 11
-10.12383507230065
 21
18.52845354847444
 31
0.0
100
AcDbAttributeDefinition
  3
Bodenbelag
  2
floor_f
 70
     0
 74
     3
280
     0
  0
ATTDEF
  5
33F
330
31F
100
AcDbEntity
  8
01_Raumstempel_Text
  6
Continuous
100
AcDbText
 10
-10.2889022876846
 20
18.23202498101951
 30
0.0
 40
0.099999996026357
  1
W:
  7
ERSTELLTER_STIL_3
 11
-10.2889022876846
 21
18.33202497704587
 31
0.0
100
AcDbAttributeDefinition
  3
Bezeichnung Wandbelag
  2
wall_bez
 70
     0
 74
     3
280
     0
  0
ATTDEF
  5
340
330
31F
100
AcDbEntity
  8
01_Raumstempel_Text
  6
Continuous
100
AcDbText
 10
-10.12383507230065
 20
18.23202498101951
 30
0.0
 40
0.099999996026357
  1
Weissputz
  7
ERSTELLTER_STIL_3
 11
-10.12383507230065
 21
18.33202497704587
 31
0.0
100
AcDbAttributeDefinition
  3
Wandbelag Material
  2
wall_mat_0
 70
     0
 74
     3
280
     0
  0
ATTDEF
  5
341
330
31F
100
AcDbEntity
  8
01_Raumstempel_Text
  6
Continuous
100
AcDbText
 10
-10.12383507230065
 20
18.03559640959094
 30
0.0
 40
0.099999996026357
  1
Weissputz
  7
ERSTELLTER_STIL_3
 11
-10.12383507230065
 21
18.1355964056173
 31
0.0
100
AcDbAttributeDefinition
  3
Wandbelag Material
  2
wall_mat_1
 70
     0
 74
     3
280
     0
  0
ATTDEF
  5
342
330
31F
100
AcDbEntity
  8
01_Raumstempel_Text
  6
Continuous
100
AcDbText
 10
-10.2889022876846
 20
18.03559640959094
 30
0.0
 40
0.099999996026357
  1
D:
  7
ERSTELLTER_STIL_3
 11
-10.2889022876846
 21
18.1355964056173
 31
0.0
100
AcDbAttributeDefinition
  3
Deckenbelag Titel
  2
ceil_bez
 70
     0
 74
     3
280
     0
  0
ATTDEF
  5
343
330
31F
100
AcDbEntity
  8
01_Raumstempel_Text
  6
Continuous
100
AcDbText
 10
-10.2889022876846
 20
19.01773926673379
 30
0.0
 40
0.099999996026357
  1
BF:
  7
ERSTELLTER_STIL_3
 11
-10.2889022876846
 21
19.11773926276015
 31
0.0
100
AcDbAttributeDefinition
  3
Bezeichnung Grundfläche
  2
gf_bez
 70
     0
 74
     3
280
     0
  0
ATTDEF
  5
344
330
31F
100
AcDbEntity
  8
01_Raumstempel_Text
  6
Continuous
100
AcDbText
 10
-9.73236122863219
 20
19.01773926673379
 30
0.0
 40
0.099999996026357
  1
 m
  7
ERSTELLTER_STIL_3
 11
-9.73236122863219
 21
19.11773926276015
 31
0.0
100
AcDbAttributeDefinition
  3
DUMMY_558
  2
DUMMY_558
 70
     0
 74
     3
280
     0
  0
ATTDEF
  5
345
330
31F
100
AcDbEntity
  8
01_Raumstempel_Text
  6
Continuous
100
AcDbText
 10
-9.580017459524079
 20
19.05869164156015
 30
0.0
 40
0.0666666688190566
  1
2
  7
ERSTELLTER_STIL_3
 11
-9.580017459524079
 21
19.1253583103792
 31
0.0
100
AcDbAttributeDefinition
  3
DUMMY_559
  2
DUMMY_559
 70
     0
 74
     3
280
     0
  0
ATTDEF
  5
346
330
31F
100
AcDbEntity
  8
01_Raumstempel_Text
  6
Continuous
100
AcDbText
 10
-9.420691815621318
 20
18.82131069530522
 30
0.0
 40
0.099999996026357
  1
±
  7
ERSTELLTER_STIL_3
 72
     2
 11
-9.344091818665127
 21
18.92131069133158
 31
0.0
100
AcDbAttributeDefinition
  3
DUMMY_560
  2
DUMMY_560
 70
     0
 74
     3
280
     0
  0
ATTDEF
  5
347
330
31F
100
AcDbEntity
  8
01_Raumstempel_Text
  6
Continuous
100
AcDbText
 10
-9.420189953591782
 20
18.62488212387665
 30
0.0
 40
0.099999996026357
  1
-
  7
ERSTELLTER_STIL_3
 72
     2
 11
-9.373689955439525
 21
18.72488211990301
 31
0.0
100
AcDbAttributeDefinition
  3
DUMMY_561
  2
DUMMY_561
 70
     0
 74
     3
280
     0
  0
ENDBLK
  5
34A
330
31F
100
AcDbEntity
  8
0
100
AcDbBlockEnd
  0
BLOCK
  5
349
330
348
100
AcDbEntity
  8
0
100
AcDbBlockBegin
  2
Waschen_EG-08_11
 70
     2
 10
-5.725573954799561
 20
21.03080711976841
 30
0.0
  3
Waschen_EG-08_11
  1

  0
LINE
  5
34B
102
{ACAD_XDICTIONARY
360
34C
102
}
330
348
100
AcDbEntity
  8
01_Raumstempel_Textrahmen
  6
Continuous
100
AcDbLine
 10
-6.504237338512336
 20
20.50937854833984
 30
0.0
 11
-5.272863343571963
 21
20.50937854833984
 31
0.0
  0
LINE
  5
34E
102
{ACAD_XDICTIONARY
360
34F
102
}
330
348
100
AcDbEntity
  8
01_Raumstempel_Textrahmen
  6
Continuous
100
AcDbLine
 10
-5.272863343571963
 20
20.50937854833984
 30
0.0
 11
-5.272863343571963
 21
20.11652140548269
 31
0.0
  0
LINE
  5
351
102
{ACAD_XDICTIONARY
360
352
102
}
330
348
100
AcDbEntity
  8
01_Raumstempel_Textrahmen
  6
Continuous
100
AcDbLine
 10
-5.272863343571963
 20
20.11652140548269
 30
0.0
 11
-6.504237338512336
 21
20.11652140548269
 31
0.0
  0
LINE
  5
354
102
{ACAD_XDICTIONARY
360
355
102
}
330
348
100
AcDbEntity
  8
01_Raumstempel_Textrahmen
  6
Continuous
100
AcDbLine
 10
-6.504237338512336
 20
20.11652140548269
 30
0.0
 11
-6.504237338512336
 21
20.50937854833984
 31
0.0
  0
LINE
  5
357
102
{ACAD_XDICTIONARY
360
358
102
}
330
348
100
AcDbEntity
  8
01_Raumstempel_Textrahmen
  6
Continuous
100
AcDbLine
 10
-5.673980155029313
 20
20.50937854833984
 30
0.0
 11
-5.673980155029313
 21
20.11652140548269
 31
0.0
  0
LINE
  5
35A
102
{ACAD_XDICTIONARY
360
35B
102
}
330
348
100
AcDbEntity
  8
01_Raumstempel_Textrahmen
  6
Continuous
100
AcDbLine
 10
-5.673980155029313
 20
20.31294997691127
 30
0.0
 11
-5.272863343571963
 21
20.31294997691127
 31
0.0
  0
ATTDEF
  5
35D
102
{ACAD_XDICTIONARY
360
35E
102
}
330
348
100
AcDbEntity
  8
01_Raumstempel_Text
  6
Continuous
100
AcDbText
 10
-6.504237338512336
 20
20.79652140184018
 30
0.0
 40
0.1500000036425061
  1
Waschen
  7
ERSTELLTER_STIL_2
 11
-6.504237338512336
 21
20.94652140548269
 31
0.0
100
AcDbAttributeDefinition
  3
Raumname
  2
ROOM_NAME
 70
     0
 74
     3
280
     0
  0
ATTDEF
  5
360
102
{ACAD_XDICTIONARY
360
361
102
}
330
348
100
AcDbEntity
  8
01_Raumstempel_Text
  6
Continuous
100
AcDbText
 10
-6.386380195655193
 20
20.24652140184018
 30
0.0
 40
0.1500000036425061
  1
EG-08
  7
ERSTELLTER_STIL_2
 11
-6.386380195655193
 21
20.39652140548269
 31
0.0
100
AcDbAttributeDefinition
  3
Raumnummer
  2
ROOM_NUMBER
 70
     0
 74
     3
280
     0
  0
ATTDEF
  5
363
330
348
100
AcDbEntity
  8
01_Raumstempel_Text
  6
Continuous
100
AcDbText
 10
-5.559426477314903
 20
20.36687855231348
 30
0.0
 40
0.099999996026357
  1
0.00
  7
ERSTELLTER_STIL_3
 11
-5.559426477314903
 21
20.46687854833984
 31
0.0
100
AcDbAttributeDefinition
  3
Gesamtlänge aller Bodenkanten
  2
ROOM_HOLES_PRM
 70
     0
 74
     3
280
     0
  0
ATTDEF
  5
364
330
348
100
AcDbEntity
  8
01_Raumstempel_Text
  6
Continuous
100
AcDbText
 10
-6.290888292497633
 20
20.56330712374205
 30
0.0
 40
0.099999996026357
  1
13.60
  7
ERSTELLTER_STIL_3
 11
-6.290888292497633
 21
20.66330711976841
 31
0.0
100
AcDbAttributeDefinition
  3

  2
orders_temp_0
 70
     0
 74
     3
280
     0
  0
ATTDEF
  5
365
330
348
100
AcDbEntity
  8
01_Raumstempel_Text
  6
Continuous
100
AcDbText
 10
-5.559426477314903
 20
20.17044998088491
 30
0.0
 40
0.099999996026357
  1
0.15
  7
ERSTELLTER_STIL_3
 11
-5.559426477314903
 21
20.27044997691127
 31
0.0
100
AcDbAttributeDefinition
  3

  2
orders_temp_1
 70
     0
 74
     3
280
     0
  0
ATTDEF
  5
366
330
348
100
AcDbEntity
  8
01_Raumstempel_Text
  6
Continuous
100
AcDbText
 10
-6.504237338512336
 20
19.97402140945634
 30
0.0
 40
0.099999996026357
  1
B:
  7
ERSTELLTER_STIL_3
 11
-6.504237338512336
 21
20.0740214054827
 31
0.0
100
AcDbAttributeDefinition
  3
Bodenbelag Titel
  2
floor_bez
 70
     0
 74
     3
280
     0
  0
ATTDEF
  5
367
330
348
100
AcDbEntity
  8
01_Raumstempel_Text
  6
Continuous
100
AcDbText
 10
-6.339169405254445
 20
19.97402140945634
 30
0.0
 40
0.099999996026357
  1
Platten FST
  7
ERSTELLTER_STIL_3
 11
-6.339169405254445
 21
20.0740214054827
 31
0.0
100
AcDbAttributeDefinition
  3
Bodenbelag
  2
floor_f
 70
     0
 74
     3
280
     0
  0
ATTDEF
  5
368
330
348
100
AcDbEntity
  8
01_Raumstempel_Text
  6
Continuous
100
AcDbText
 10
-6.504237338512336
 20
19.77759283802776
 30
0.0
 40
0.099999996026357
  1
W:
  7
ERSTELLTER_STIL_3
 11
-6.504237338512336
 21
19.87759283405412
 31
0.0
100
AcDbAttributeDefinition
  3
Bezeichnung Wandbelag
  2
wall_bez
 70
     0
 74
     3
280
     0
  0
ATTDEF
  5
369
330
348
100
AcDbEntity
  8
01_Raumstempel_Text
  6
Continuous
100
AcDbText
 10
-6.339169405254445
 20
19.77759283802776
 30
0.0
 40
0.099999996026357
  1
Weissputz/Platten FST
  7
ERSTELLTER_STIL_3
 11
-6.339169405254445
 21
19.87759283405412
 31
0.0
100
AcDbAttributeDefinition
  3
Wandbelag Material
  2
wall_mat
 70
     0
 74
     3
280
     0
  0
ATTDEF
  5
36A
330
348
100
AcDbEntity
  8
01_Raumstempel_Text
  6
Continuous
100
AcDbText
 10
-6.504237338512336
 20
19.58116426659919
 30
0.0
 40
0.099999996026357
  1
D:
  7
ERSTELLTER_STIL_3
 11
-6.504237338512336
 21
19.68116426262555
 31
0.0
100
AcDbAttributeDefinition
  3
Deckenbelag Titel
  2
ceil_bez
 70
     0
 74
     3
280
     0
  0
ATTDEF
  5
36B
330
348
100
AcDbEntity
  8
01_Raumstempel_Text
  6
Continuous
100
AcDbText
 10
-6.339169405254445
 20
19.58116426659919
 30
0.0
 40
0.099999996026357
  1
Weissputz
  7
ERSTELLTER_STIL_3
 11
-6.339169405254445
 21
19.68116426262555
 31
0.0
100
AcDbAttributeDefinition
  3
Deckenbelag
  2
ceil_mat
 70
     0
 74
     3
280
     0
  0
ATTDEF
  5
36C
330
348
100
AcDbEntity
  8
01_Raumstempel_Text
  6
Continuous
100
AcDbText
 10
-6.504237338512336
 20
20.56330712374205
 30
0.0
 40
0.099999996026357
  1
BF:
  7
ERSTELLTER_STIL_3
 11
-6.504237338512336
 21
20.66330711976841
 31
0.0
100
AcDbAttributeDefinition
  3
Bezeichnung Grundfläche
  2
gf_bez
 70
     0
 74
     3
280
     0
  0
ATTDEF
  5
36D
330
348
100
AcDbEntity
  8
01_Raumstempel_Text
  6
Continuous
100
AcDbText
 10
-5.947696292154954
 20
20.56330712374205
 30
0.0
 40
0.099999996026357
  1
 m
  7
ERSTELLTER_STIL_3
 11
-5.947696292154954
 21
20.66330711976841
 31
0.0
100
AcDbAttributeDefinition
  3
DUMMY_558
  2
DUMMY_558
 70
     0
 74
     3
280
     0
  0
ATTDEF
  5
36E
330
348
100
AcDbEntity
  8
01_Raumstempel_Text
  6
Continuous
100
AcDbText
 10
-5.79535166346689
 20
20.60425949856839
 30
0.0
 40
0.0666666688190566
  1
2
  7
ERSTELLTER_STIL_3
 11
-5.79535166346689
 21
20.67092616738745
 31
0.0
100
AcDbAttributeDefinition
  3
DUMMY_559
  2
DUMMY_559
 70
     0
 74
     3
280
     0
  0
ATTDEF
  5
36F
330
348
100
AcDbEntity
  8
01_Raumstempel_Text
  6
Continuous
100
AcDbText
 10
-5.636026474271093
 20
20.36687855231348
 30
0.0
 40
0.099999996026357
  1
±
  7
ERSTELLTER_STIL_3
 72
     2
 11
-5.559426477314903
 21
20.46687854833984
 31
0.0
100
AcDbAttributeDefinition
  3
DUMMY_560
  2
DUMMY_560
 70
     0
 74
     3
280
     0
  0
ATTDEF
  5
370
330
348
100
AcDbEntity
  8
01_Raumstempel_Text
  6
Continuous
100
AcDbText
 10
-5.635524772593701
 20
20.17044998088491
 30
0.0
 40
0.099999996026357
  1
-
  7
ERSTELLTER_STIL_3
 72
     2
 11
-5.589024774441445
 21
20.27044997691127
 31
0.0
100
AcDbAttributeDefinition
  3
DUMMY_561
  2
DUMMY_561
 70
     0
 74
     3
280
     0
  0
ENDBLK
  5
373
330
348
100
AcDbEntity
  8
0
100
AcDbBlockEnd
  0
BLOCK
  5
372
330
371
100
AcDbEntity
  8
0
100
AcDbBlockBegin
  2
Lift_EG-02_12
 70
     2
 10
-11.53026616579689
 20
18.32939310810346
 30
0.0
  3
Lift_EG-02_12
  1

  0
ATTDEF
  5
374
102
{ACAD_XDICTIONARY
360
375
102
}
330
371
100
AcDbEntity
  8
01_Raumstempel_Text
  6
Continuous
100
AcDbText
 10
-11.87199656415166
 20
18.09510739017523
 30
0.0
 40
0.1500000036425061
  1
Lift
  7
ERSTELLTER_STIL_2
 11
-11.87199656415166
 21
18.24510739381774
 31
0.0
100
AcDbAttributeDefinition
  3
Raumname
  2
ROOM_NAME
 70
     0
 74
     3
280
     0
  0
ATTDEF
  5
377
330
371
100
AcDbEntity
  8
01_Raumstempel_Text
  6
Continuous
100
AcDbText
 10
-11.65864830319075
 20
17.8618931120771
 30
0.0
 40
0.099999996026357
  1
2.70
  7
ERSTELLTER_STIL_3
 11
-11.65864830319075
 21
17.96189310810346
 31
0.0
100
AcDbAttributeDefinition
  3
Gemessene Fläche
  2
ROOM_AREA
 70
     0
 74
     3
280
     0
  0
ATTDEF
  5
378
330
371
100
AcDbEntity
  8
01_Raumstempel_Text
  6
Continuous
100
AcDbText
 10
-11.87199656415166
 20
17.8618931120771
 30
0.0
 40
0.099999996026357
  1
BF:
  7
ERSTELLTER_STIL_3
 11
-11.87199656415166
 21
17.96189310810346
 31
0.0
100
AcDbAttributeDefinition
  3
Bezeichnung Grundfläche
  2
gf_bez
 70
     0
 74
     3
280
     0
  0
ATTDEF
  5
379
330
371
100
AcDbEntity
  8
01_Raumstempel_Text
  6
Continuous
100
AcDbText
 10
-11.39172777712916
 20
17.8618931120771
 30
0.0
 40
0.099999996026357
  1
 m
  7
ERSTELLTER_STIL_3
 11
-11.39172777712916
 21
17.96189310810346
 31
0.0
100
AcDbAttributeDefinition
  3
DUMMY_558
  2
DUMMY_558
 70
     0
 74
     3
280
     0
  0
ATTDEF
  5
37A
330
371
100
AcDbEntity
  8
01_Raumstempel_Text
  6
Continuous
100
AcDbText
 10
-11.23938400802105
 20
17.90284548690345
 30
0.0
 40
0.0666666688190566
  1
2
  7
ERSTELLTER_STIL_3
 11
-11.23938400802105
 21
17.96951215572251
 31
0.0
100
AcDbAttributeDefinition
  3
DUMMY_559
  2
DUMMY_559
 70
     0
 74
     3
280
     0
  0
ENDBLK
  5
37B
330
371
100
AcDbEntity
  8
0
100
AcDbBlockEnd
  0
BLOCK
  5
429
330
428
100
AcDbEntity
  8
0
100
AcDbBlockBegin
  2
*D19
 70
     1
 10
0.0
 20
0.0
 30
0.0
  3
*D19
  1

  0
LINE
  5
42B
330
428
100
AcDbEntity
  8
0_WP_BEMASSUNG_1_50
  6
ByBlock
 62
     7
370
    -2
100
AcDbLine
 10
-4.399999375712104
 20
18.47997213215147
 30
0.0
 11
-5.246473011211921
 21
18.47997213215147
 31
0.0
  0
LINE
  5
42C
330
428
100
AcDbEntity
  8
0_WP_BEMASSUNG_1_50
  6
ByBlock
 62
     7
370
    -2
100
AcDbLine
 10
-4.649999375711014
 20
18.65497213215147
 30
0.0
 11
-5.246473011211921
 21
18.65497213215147
 31
0.0
  0
LINE
  5
42D
330
428
100
AcDbEntity
  8
0_WP_BEMASSUNG_1_50
  6
ByBlock
 62
     7
370
    -2
100
AcDbLine
 10
-5.066473011211921
 20
18.47997213215147
 30
0.0
 11
-5.066473011211921
 21
17.82430212595974
 31
0.0
  0
LINE
  5
42E
330
428
100
AcDbEntity
  8
0_WP_BEMASSUNG_1_50
  6
ByBlock
 62
     7
370
    -2
100
AcDbLine
 10
-5.066473011211921
 20
18.47997213215147
 30
0.0
 11
-5.066473011211921
 21
18.65497213215147
 31
0.0
  0
LINE
  5
42F
330
428
100
AcDbEntity
  8
0_WP_BEMASSUNG_1_50
  6
ByBlock
 62
     7
370
    -2
100
AcDbLine
 10
-5.066473011211921
 20
18.38497213215147
 30
0.0
 11
-5.066473011211921
 21
18.28997213215147
 31
0.0
  0
LINE
  5
430
330
428
100
AcDbEntity
  8
0_WP_BEMASSUNG_1_50
  6
ByBlock
 62
     7
370
    -2
100
AcDbLine
 10
-5.066473011211921
 20
18.74997213215147
 30
0.0
 11
-5.066473011211921
 21
18.84497213215147
 31
0.0
  0
INSERT
  5
431
330
428
100
AcDbEntity
  8
0_WP_BEMASSUNG_1_50
 62
     7
370
    -2
100
AcDbBlockReference
  2
ARROWHEAD_6
 10
-5.066473011211921
 20
18.47997213215147
 30
0.0
 41
0.095
 42
0.095
 43
0.095
 50
90.0
  0
INSERT
  5
432
330
428
100
AcDbEntity
  8
0_WP_BEMASSUNG_1_50
 62
     7
370
    -2
100
AcDbBlockReference
  2
ARROWHEAD_6
 10
-5.066473011211921
 20
18.65497213215147
 30
0.0
 41
0.095
 42
0.095
 43
0.095
 50
270.0
  0
MTEXT
  5
433
330
428
100
AcDbEntity
  8
0_WP_BEMASSUNG_1_50
 62
     7
100
AcDbMText
 10
-5.212628012429049
 20
18.0571371290556
 30
0.0
 40
0.1100000023841858
 41
0.0
 46
0.0
 71
     5
 72
     1
  1
\A1;{\fArial|b0|i0|c0|p34;17\fArial|b0|i0|c0|p34;\A1{\H.66x;\S5^  ;}}
  7
ERSTELLTER_STIL_3
 11
0.0
 21
1.0
 31
0.0
 73
     1
 44
1.0
  0
POINT
  5
434
330
428
100
AcDbEntity
  8
Defpoints
 62
     0
100
AcDbPoint
 10
-4.299999375712105
 20
18.47997213215147
 30
0.0
  0
POINT
  5
435
330
428
100
AcDbEntity
  8
Defpoints
 62
     0
100
AcDbPoint
 10
-4.549999375711014
 20
18.65497213215147
 30
0.0
  0
POINT
  5
436
330
428
100
AcDbEntity
  8
Defpoints
 62
     0
100
AcDbPoint
 10
-5.066473011211921
 20
18.65497213215147
 30
0.0
  0
ENDBLK
  5
42A
330
428
100
AcDbEntity
  8
0
100
AcDbBlockEnd
  0
BLOCK
  5
43B
330
43A
100
AcDbEntity
  8
0
100
AcDbBlockBegin
  2
*D20
 70
     1
 10
0.0
 20
0.0
 30
0.0
  3
*D20
  1

  0
LINE
  5
43D
330
43A
100
AcDbEntity
  8
0_WP_BEMASSUNG_1_50
  6
ByBlock
 62
     7
370
    -2
100
AcDbLine
 10
-8.714999375716946
 20
18.75497213215147
 30
0.0
 11
-8.714999375716946
 21
19.28976678735829
 31
0.0
  0
LINE
  5
43E
330
43A
100
AcDbEntity
  8
0_WP_BEMASSUNG_1_50
  6
ByBlock
 62
     7
370
    -2
100
AcDbLine
 10
-5.829999375710795
 20
18.75497213215147
 30
0.0
 11
-5.829999375710795
 21
19.28976678735829
 31
0.0
  0
LINE
  5
43F
330
43A
100
AcDbEntity
  8
0_WP_BEMASSUNG_1_50
  6
ByBlock
 62
     7
370
    -2
100
AcDbLine
 10
-8.619999375716946
 20
19.10976678735829
 30
0.0
 11
-5.924999375710795
 21
19.10976678735829
 31
0.0
  0
INSERT
  5
440
330
43A
100
AcDbEntity
  8
0_WP_BEMASSUNG_1_50
 62
     7
370
    -2
100
AcDbBlockReference
  2
ARROWHEAD_6
 10
-8.714999375716946
 20
19.10976678735829
 30
0.0
 41
0.095
 42
0.095
 43
0.095
 50
180.0
  0
INSERT
  5
441
330
43A
100
AcDbEntity
  8
0_WP_BEMASSUNG_1_50
 62
     7
370
    -2
100
AcDbBlockReference
  2
ARROWHEAD_6
 10
-5.829999375710795
 20
19.10976678735829
 30
0.0
 41
0.095
 42
0.095
 43
0.095
  0
MTEXT
  5
442
330
43A
100
AcDbEntity
  8
0_WP_BEMASSUNG_1_50
 62
     7
100
AcDbMText
 10
-6.101444903469229
 20
19.18676678843117
 30
0.0
 40
0.1100000023841858
 41
0.0
 46
0.0
 71
     5
 72
     1
  1
\A1;{\fArial|b0|i0|c0|p34;2.88\fArial|b0|i0|c0|p34;\A1{\H.66x;\S5^  ;}}
  7
ERSTELLTER_STIL_3
 73
     1
 44
1.0
  0
POINT
  5
443
330
43A
100
AcDbEntity
  8
Defpoints
 62
     0
100
AcDbPoint
 10
-8.714999375716946
 20
18.65497213215147
 30
0.0
  0
POINT
  5
444
330
43A
100
AcDbEntity
  8
Defpoints
 62
     0
100
AcDbPoint
 10
-5.829999375710795
 20
18.65497213215147
 30
0.0
  0
POINT
  5
445
330
43A
100
AcDbEntity
  8
Defpoints
 62
     0
100
AcDbPoint
 10
-5.829999375710795
 20
19.10976678735829
 30
0.0
  0
ENDBLK
  5
43C
330
43A
100
AcDbEntity
  8
0
100
AcDbBlockEnd
  0
BLOCK
  5
44A
330
449
100
AcDbEntity
  8
0
100
AcDbBlockBegin
  2
*D21
 70
     1
 10
0.0
 20
0.0
 30
0.0
  3
*D21
  1

  0
LINE
  5
44C
330
449
100
AcDbEntity
  8
0_WP_BEMASSUNG_1_50
  6
ByBlock
 62
     7
370
    -2
100
AcDbLine
 10
-14.294999375716
 20
18.77497213215205
 30
0.0
 11
-14.76656601344108
 21
18.77497213215205
 31
0.0
  0
LINE
  5
44D
330
449
100
AcDbEntity
  8
0_WP_BEMASSUNG_1_50
  6
ByBlock
 62
     7
370
    -2
100
AcDbLine
 10
-14.294999375716
 20
20.01997210955141
 30
0.0
 11
-14.76656601344108
 21
20.01997210955141
 31
0.0
  0
LINE
  5
44E
330
449
100
AcDbEntity
  8
0_WP_BEMASSUNG_1_50
  6
ByBlock
 62
     7
370
    -2
100
AcDbLine
 10
-14.58656601344108
 20
18.86997213215205
 30
0.0
 11
-14.58656601344108
 21
19.92497210955141
 31
0.0
  0
INSERT
  5
44F
330
449
100
AcDbEntity
  8
0_WP_BEMASSUNG_1_50
 62
     7
370
    -2
100
AcDbBlockReference
  2
ARROWHEAD_6
 10
-14.58656601344108
 20
18.77497213215205
 30
0.0
 41
0.095
 42
0.095
 43
0.095
 50
270.0
  0
INSERT
  5
450
330
449
100
AcDbEntity
  8
0_WP_BEMASSUNG_1_50
 62
     7
370
    -2
100
AcDbBlockReference
  2
ARROWHEAD_6
 10
-14.58656601344108
 20
20.01997210955141
 30
0.0
 41
0.095
 42
0.095
 43
0.095
 50
90.0
  0
MTEXT
  5
451
330
449
100
AcDbEntity
  8
0_WP_BEMASSUNG_1_50
 62
     7
100
AcDbMText
 10
-14.73272101465821
 20
19.52440523079339
 30
0.0
 40
0.1100000023841858
 41
0.0
 46
0.0
 71
     5
 72
     1
  1
\A1;{\fArial|b0|i0|c0|p34;1.24\fArial|b0|i0|c0|p34;\A1{\H.66x;\S5^  ;}}
  7
ERSTELLTER_STIL_3
 11
0.0
 21
1.0
 31
0.0
 73
     1
 44
1.0
  0
POINT
  5
452
330
449
100
AcDbEntity
  8
Defpoints
 62
     0
100
AcDbPoint
 10
-14.194999375716
 20
18.77497213215205
 30
0.0
  0
POINT
  5
453
330
449
100
AcDbEntity
  8
Defpoints
 62
     0
100
AcDbPoint
 10
-14.194999375716
 20
20.01997210955141
 30
0.0
  0
POINT
  5
454
330
449
100
AcDbEntity
  8
Defpoints
 62
     0
100
AcDbPoint
 10
-14.58656601344108
 20
20.01997210955141
 30
0.0
  0
ENDBLK
  5
44B
330
449
100
AcDbEntity
  8
0
100
AcDbBlockEnd
  0
ENDSEC
  0
SECTION
  2
ENTITIES
  0
LWPOLYLINE
  5
37C
330
1F
100
AcDbEntity
  8
01_Raumstempel_Kontur
  6
Continuous
 62
   121
420
 10086118
370
     0
100
AcDbPolyline
 90
        6
 70
   129
 43
0.0
 10
-13.194999375716
 20
21.84997213207281
 10
-15.92499875142908
 20
21.84997213204073
 10
-15.92499875142908
 20
18.77497213215205
 10
-14.194999375716
 20
18.77497213215205
 10
-14.194999375716
 20
20.01997210955141
 10
-13.194999375716
 20
20.01997210955141
  0
INSERT
  5
37D
330
1F
100
AcDbEntity
  8
01_Raumstempel
  6
Continuous
100
AcDbBlockReference
 66
     1
  2
Gästetoil._EG-05_7
 10
-14.73435108237949
 20
23.89715840588239
 30
0.0
 41
0.9999999999999978
 42
1.000000000000001
 50
12.62124700266644
  0
ATTRIB
  5
37E
102
{ACAD_XDICTIONARY
360
37F
102
}
330
37D
100
AcDbEntity
  8
01_Raumstempel_Text
  6
Continuous
 62
     7
100
AcDbText
 10
-15.28396779667412
 20
23.53400326551078
 30
0.0
 40
0.1500000036425061
  1
Gästetoil.
 50
12.62124700266625
  7
ERSTELLTER_STIL_2
 11
-15.31674356633269
 21
23.68037863917739
 31
0.0
100
AcDbAttribute
  2
ROOM_NAME
 70
     0
 74
     3
280
     0
  0
ATTRIB
  5
381
102
{ACAD_XDICTIONARY
360
382
102
}
330
37D
100
AcDbEntity
  8
01_Raumstempel_Text
  6
Continuous
 62
     7
100
AcDbText
 10
-15.04878075813718
 20
23.02304596492034
 30
0.0
 40
0.1500000036425061
  1
EG-05
 50
12.62124700266641
  7
ERSTELLTER_STIL_2
 11
-15.08155652779576
 21
23.16942133858695
 31
0.0
100
AcDbAttribute
  2
ROOM_NUMBER
 70
     0
 74
     3
280
     0
  0
ATTRIB
  5
384
330
37D
100
AcDbEntity
  8
01_Raumstempel_Text
  6
Continuous
 62
     7
100
AcDbText
 10
-15.02481641043846
 20
23.35304211228719
 30
0.0
 40
0.099999996026357
  1
7.15
 50
12.62124700266691
  7
ERSTELLTER_STIL_3
 11
-15.04666692214531
 21
23.45062568848432
 31
0.0
100
AcDbAttribute
  2
ROOM_AREA
 70
     0
 74
     3
280
     0
  0
ATTRIB
  5
385
330
37D
100
AcDbEntity
  8
01_Raumstempel_Text
  6
Continuous
 62
     7
100
AcDbText
 10
-14.26810875121999
 20
23.32118832175155
 30
0.0
 40
0.099999996026357
  1
0.00
 50
12.62124700266593
  7
ERSTELLTER_STIL_3
 11
-14.28995926292684
 21
23.41877189794867
 31
0.0
100
AcDbAttribute
  2
ROOM_HOLES_PRM
 70
     0
 74
     3
280
     0
  0
ATTRIB
  5
386
330
37D
100
AcDbEntity
  8
01_Raumstempel_Text
  6
Continuous
 62
     7
100
AcDbText
 10
-14.22518810151887
 20
23.12950628946186
 30
0.0
 40
0.099999996026357
  1
0.15
 50
12.62124700266585
  7
ERSTELLTER_STIL_3
 11
-14.24703861322572
 21
23.22708986565899
 31
0.0
100
AcDbAttribute
  2
orders_temp
 70
     0
 74
     3
280
     0
  0
ATTRIB
  5
387
330
37D
100
AcDbEntity
  8
01_Raumstempel_Text
  6
Continuous
 62
     7
100
AcDbText
 10
-15.10424733240799
 20
22.7313783268281
 30
0.0
 40
0.099999996026357
  1
B:
 50
12.62124700266607
  7
ERSTELLTER_STIL_3
 11
-15.12609784411484
 21
22.82896190302522
 31
0.0
100
AcDbAttribute
  2
floor_bez
 70
     0
 74
     3
280
     0
  0
ATTRIB
  5
388
330
37D
100
AcDbEntity
  8
01_Raumstempel_Text
  6
Continuous
 62
     7
100
AcDbText
 10
-14.94316883410663
 20
22.76744635948296
 30
0.0
 40
0.099999996026357
  1
Platten FST
 50
12.62124700266622
  7
ERSTELLTER_STIL_3
 11
-14.96501934581348
 21
22.86502993568008
 31
0.0
100
AcDbAttribute
  2
floor_f
 70
     0
 74
     3
280
     0
  0
ATTRIB
  5
389
330
37D
100
AcDbEntity
  8
01_Raumstempel_Text
  6
Continuous
 62
     7
100
AcDbText
 10
-15.06132668270688
 20
22.53969629453841
 30
0.0
 40
0.099999996026357
  1
W:
 50
12.62124700266616
  7
ERSTELLTER_STIL_3
 11
-15.08317719441373
 21
22.63727987073554
 31
0.0
100
AcDbAttribute
  2
wall_bez
 70
     0
 74
     3
280
     0
  0
ATTRIB
  5
38A
330
37D
100
AcDbEntity
  8
01_Raumstempel_Text
  6
Continuous
 62
     7
100
AcDbText
 10
-14.90024818440551
 20
22.57576432719327
 30
0.0
 40
0.099999996026357
  1
Weissputz/FST
 50
12.62124700266629
  7
ERSTELLTER_STIL_3
 11
-14.92209869611236
 21
22.6733479033904
 31
0.0
100
AcDbAttribute
  2
wall_mat
 70
     0
 74
     3
280
     0
  0
ATTRIB
  5
38B
330
37D
100
AcDbEntity
  8
01_Raumstempel_Text
  6
Continuous
 62
     7
100
AcDbText
 10
-15.01840603300576
 20
22.34801426224872
 30
0.0
 40
0.099999996026357
  1
D:
 50
12.62124700266613
  7
ERSTELLTER_STIL_3
 11
-15.04025654471261
 21
22.44559783844585
 31
0.0
100
AcDbAttribute
  2
ceil_bez
 70
     0
 74
     3
280
     0
  0
ATTRIB
  5
38C
330
37D
100
AcDbEntity
  8
01_Raumstempel_Text
  6
Continuous
 62
     7
100
AcDbText
 10
-14.8573275347044
 20
22.38408229490358
 30
0.0
 40
0.099999996026357
  1
Weissputz
 50
12.62124700266672
  7
ERSTELLTER_STIL_3
 11
-14.87917804641125
 21
22.48166587110071
 31
0.0
100
AcDbAttribute
  2
ceil_mat
 70
     0
 74
     3
280
     0
  0
ATTRIB
  5
38D
330
37D
100
AcDbEntity
  8
01_Raumstempel_Text
  6
Continuous
 62
     7
100
AcDbText
 10
-15.23300928151133
 20
23.30642442369715
 30
0.0
 40
0.099999996026357
  1
BF:
 50
12.62124700266723
  7
ERSTELLTER_STIL_3
 11
-15.25485979321818
 21
23.40400799989427
 31
0.0
100
AcDbAttribute
  2
gf_bez
 70
     0
 74
     3
280
     0
  0
ATTRIB
  5
38E
330
37D
100
AcDbEntity
  8
01_Raumstempel_Text
  6
Continuous
 62
     7
100
AcDbText
 10
-14.76434580515319
 20
23.41136561539984
 30
0.0
 40
0.099999996026357
  1
 m
 50
12.62124700266708
  7
ERSTELLTER_STIL_3
 11
-14.78619631686005
 21
23.50894919159697
 31
0.0
100
AcDbAttribute
  2
DUMMY_558
 70
     0
 74
     3
280
     0
  0
ATTRIB
  5
38F
330
37D
100
AcDbEntity
  8
01_Raumstempel_Text
  6
Continuous
 62
     7
100
AcDbText
 10
-14.62463160504793
 20
23.48461630330739
 30
0.0
 40
0.0666666688190566
  1
2
 50
12.62124700266451
  7
ERSTELLTER_STIL_3
 11
-14.63919861390165
 21
23.5496720254576
 31
0.0
100
AcDbAttribute
  2
DUMMY_559
 70
     0
 74
     3
280
     0
  0
ATTRIB
  5
390
330
37D
100
AcDbEntity
  8
01_Raumstempel_Text
  6
Continuous
 62
     7
100
AcDbText
 10
-14.34285777058698
 20
23.30445082978409
 30
0.0
 40
0.099999996026357
  1
±
 50
12.62124700266789
  7
ERSTELLTER_STIL_3
 72
     2
 11
-14.28995926292684
 21
23.41877189794867
 31
0.0
100
AcDbAttribute
  2
DUMMY_560
 70
     0
 74
     3
280
     0
  0
ATTRIB
  5
391
330
37D
100
AcDbEntity
  8
01_Raumstempel_Text
  6
Continuous
 62
     7
100
AcDbText
 10
-14.29944738595042
 20
23.11287845692028
 30
0.0
 40
0.099999996026357
  1
-
 50
12.62124700266363
  7
ERSTELLTER_STIL_3
 72
     2
 11
-14.2759215347256
 21
23.2206225210611
 31
0.0
100
AcDbAttribute
  2
DUMMY_561
 70
     0
 74
     3
280
     0
  0
SEQEND
  5
478
330
37D
100
AcDbEntity
  8
01_Raumstempel
  6
Continuous
  0
HATCH
  5
392
330
1F
100
AcDbEntity
  8
0_WP_Schraffuren_Materialangaben
  6
Continuous
370
     0
100
AcDbHatch
 10
0.0
 20
0.0
 30
0.0
210
0.0
220
0.0
230
1.0
  2
_U
 70
     0
 71
     0
 91
        1
 92
        3
 72
     0
 73
     1
 93
        6
 10
-9.374999375716943
 20
19.86997213221892
 10
-8.864999375716582
 20
19.86997213222165
 10
-8.864999375716582
 20
19.70497213215147
 10
-8.714999375716946
 20
19.70497213215147
 10
-8.71499938007633
 20
20.01997210957881
 10
-9.374999375716943
 20
20.0199721095755
 97
        0
 75
     0
 76
     0
 52
45.00000125223908
 41
0.0899999961256981
 77
     0
 78
     1
 53
45.00000125223908
 43
0.0
 44
0.0
 45
-0.0636396089581319
 46
0.0636396061763562
 79
     0
 98
        0
  0
HATCH
  5
393
330
1F
100
AcDbEntity
  8
0_WP_Schraffuren_Materialangaben
  6
Continuous
370
     0
100
AcDbHatch
 10
0.0
 20
0.0
 30
0.0
210
0.0
220
0.0
230
1.0
  2
_U
 70
     0
 71
     0
 91
        1
 92
        3
 72
     0
 73
     1
 93
        4
 10
-14.344999375716
 20
18.77497213215205
 10
-14.344999375716
 20
18.64997213215205
 10
-14.194999375716
 20
18.6499721321517
 10
-14.194999375716
 20
18.77497213215205
 97
        0
 75
     0
 76
     0
 52
45.00000125223908
 41
0.0899999961256981
 77
     0
 78
     1
 53
45.00000125223908
 43
0.0
 44
0.0
 45
-0.0636396089581319
 46
0.0636396061763562
 79
     0
 98
        0
  0
HATCH
  5
394
330
1F
100
AcDbEntity
  8
0_WP_Schraffuren_Materialangaben
  6
Continuous
370
     0
100
AcDbHatch
 10
0.0
 20
0.0
 30
0.0
210
0.0
220
0.0
230
1.0
  2
_U
 70
     0
 71
     0
 91
        1
 92
        3
 72
     0
 73
     1
 93
        4
 10
-15.92499875142908
 20
18.77497213215205
 10
-15.22499937571614
 20
18.77497213215205
 10
-15.22499937571614
 20
18.64997213215204
 10
-15.92499875142908
 20
18.64997213215205
 97
        0
 75
     0
 76
     0
 52
45.00000125223908
 41
0.0899999961256981
 77
     0
 78
     1
 53
45.00000125223908
 43
0.0
 44
0.0
 45
-0.0636396089581319
 46
0.0636396061763562
 79
     0
 98
        0
  0
HATCH
  5
395
330
1F
100
AcDbEntity
  8
0_WP_Schraffuren_Materialangaben
  6
Continuous
370
     0
100
AcDbHatch
 10
0.0
 20
0.0
 30
0.0
210
0.0
220
0.0
230
1.0
  2
_U
 70
     0
 71
     0
 91
        1
 92
        3
 72
     0
 73
     1
 93
       10
 10
-8.864999375716582
 20
18.82497213215147
 10
-8.714999375716582
 20
18.82497213215147
 10
-8.714999375716946
 20
18.65497213215147
 10
-4.549999375711014
 20
18.65497213215147
 10
-4.549999375711014
 20
18.47997213215147
 10
-5.829999375710795
 20
18.47997213215147
 10
-5.829999375710795
 20
18.50497216024464
 10
-8.714999375716946
 20
18.50497213215147
 10
-8.714999375716946
 20
17.88497213215147
 10
-8.864999375716582
 20
17.88497213215147
 97
        0
 75
     0
 76
     0
 52
45.00000125223908
 41
0.0899999961256981
 77
     0
 78
     1
 53
45.00000125223908
 43
0.0
 44
0.0
 45
-0.0636396089581319
 46
0.0636396061763562
 79
     0
 98
        0
  0
HATCH
  5
396
330
1F
100
AcDbEntity
  8
0_WP_Schraffuren_Materialangaben
  6
Continuous
370
     0
100
AcDbHatch
 10
0.0
 20
0.0
 30
0.0
210
0.0
220
0.0
230
1.0
  2
__BETON
 70
     0
 71
     0
 91
        1
 92
        3
 72
     0
 73
     1
 93
        4
 10
-4.549999375711014
 20
21.84997213202433
 10
-4.29999937571101
 20
22.09997213226027
 10
-4.29999937571101
 20
20.93196887077578
 10
-4.549999375711014
 20
20.93196887077578
 97
        0
 75
     0
 76
     1
 52
0.0
 41
1.0
 77
     0
 78
     2
 53
44.99999999999999
 43
0.0
 44
0.0
 45
-0.0459619390912516
 46
0.0459619390912517
 79
     1
 49
1.0
 53
135.0
 43
0.0
 44
0.0
 45
0.0459619390912517
 46
0.0459619390912516
 79
     1
 49
1.0
 98
        0
  0
HATCH
  5
397
330
1F
100
AcDbEntity
  8
0_WP_Schraffuren_Materialangaben
  6
Continuous
370
     0
100
AcDbHatch
 10
0.0
 20
0.0
 30
0.0
210
0.0
220
0.0
230
1.0
  2
__BETON
 70
     0
 71
     0
 91
        1
 92
        3
 72
     0
 73
     1
 93
        4
 10
-4.29999937571101
 20
22.09997213226027
 10
-4.549999375711014
 20
21.84997213202433
 10
-17.11576978777094
 20
21.84997213225563
 10
-17.17358892068242
 20
22.09997213202433
 97
        0
 75
     0
 76
     1
 52
0.0
 41
1.0
 77
     0
 78
     2
 53
44.99999999999999
 43
0.0
 44
0.0
 45
-0.0459619390912516
 46
0.0459619390912517
 79
     1
 49
1.0
 53
135.0
 43
0.0
 44
0.0
 45
0.0459619390912517
 46
0.0459619390912516
 79
     1
 49
1.0
 98
        0
  0
HATCH
  5
398
330
1F
100
AcDbEntity
  8
0_WP_Schraffuren_Materialangaben
  6
Continuous
370
     0
100
AcDbHatch
 10
0.0
 20
0.0
 30
0.0
210
0.0
220
0.0
230
1.0
  2
_U
 70
     0
 71
     0
 91
        1
 92
        3
 72
     0
 73
     1
 93
        4
 10
-17.15985153424328
 20
22.09997213202177
 10
-17.19511692996007
 20
22.29997213202227
 10
-4.099999375712104
 20
22.29997213226571
 10
-4.099999375712104
 20
22.09997213226313
 97
        0
 75
     0
 76
     0
 52
90.00000250447816
 41
0.1000000014901161
 77
     0
 78
     1
 53
90.00000250447816
 43
0.0
 44
0.0
 45
-0.100000001490116
 46
-0.0000000043711391
 79
     0
 98
        0
  0
HATCH
  5
399
330
1F
100
AcDbEntity
  8
0_WP_Schraffuren_Materialangaben
  6
Continuous
370
     0
100
AcDbHatch
 10
0.0
 20
0.0
 30
0.0
210
0.0
220
0.0
230
1.0
  2
__BETON
 70
     0
 71
     0
 91
        1
 92
        3
 72
     0
 73
     1
 93
        4
 10
-16.10499875142916
 20
21.84997213225563
 10
-15.92499875142908
 20
21.84997213225563
 10
-15.92499875142908
 20
18.29997213215171
 10
-16.10499875142916
 20
18.29997213215171
 97
        0
 75
     0
 76
     1
 52
0.0
 41
1.0
 77
     0
 78
     2
 53
44.99999999999999
 43
0.0
 44
0.0
 45
-0.0459619390912516
 46
0.0459619390912517
 79
     1
 49
1.0
 53
135.0
 43
0.0
 44
0.0
 45
0.0459619390912517
 46
0.0459619390912516
 79
     1
 49
1.0
 98
        0
  0
HATCH
  5
39A
330
1F
100
AcDbEntity
  8
0_WP_Schraffuren_Materialangaben
  6
Continuous
370
     0
100
AcDbHatch
 10
0.0
 20
0.0
 30
0.0
210
0.0
220
0.0
230
1.0
  2
_U
 70
     0
 71
     0
 91
        1
 92
        3
 72
     0
 73
     1
 93
        4
 10
-13.194999375716
 20
21.84997213207281
 10
-13.04499937571614
 20
21.8499721320756
 10
-13.04499937571614
 20
20.01997210955216
 10
-13.194999375716
 20
20.01997210955141
 97
        0
 75
     0
 76
     0
 52
45.00000125223908
 41
0.0899999961256981
 77
     0
 78
     1
 53
45.00000125223908
 43
0.0
 44
0.0
 45
-0.0636396089581319
 46
0.0636396061763562
 79
     0
 98
        0
  0
HATCH
  5
39B
330
1F
100
AcDbEntity
  8
0_WP_Schraffuren_Materialangaben
  6
Continuous
370
     0
100
AcDbHatch
 10
0.0
 20
0.0
 30
0.0
210
0.0
220
0.0
230
1.0
  2
_U
 70
     0
 71
     0
 91
        1
 92
        3
 72
     0
 73
     1
 93
        6
 10
-14.04499937571545
 20
18.6499721321517
 10
-14.04499937571545
 20
19.86997213219392
 10
-10.25499937571694
 20
19.86997213221421
 10
-10.25499937571694
 20
20.0199721095711
 10
-14.194999375716
 20
20.01997210955141
 10
-14.194999375716
 20
18.64997213215136
 97
        0
 75
     0
 76
     0
 52
45.00000125223908
 41
0.0899999961256981
 77
     0
 78
     1
 53
45.00000125223908
 43
0.0
 44
0.0
 45
-0.0636396089581319
 46
0.0636396061763562
 79
     0
 98
        0
  0
HATCH
  5
39C
330
1F
100
AcDbEntity
  8
0_WP_Schraffuren_Materialangaben
  6
Continuous
370
     0
100
AcDbHatch
 10
0.0
 20
0.0
 30
0.0
210
0.0
220
0.0
230
1.0
  2
__BETON
 70
     0
 71
     0
 91
        1
 92
        3
 72
     0
 73
     1
 93
        4
 10
-4.549999375711014
 20
18.79997213215147
 10
-4.299999375711013
 20
18.79997213215147
 10
-4.299999386882285
 20
18.47997213215147
 10
-4.549999375711014
 20
18.47997213215147
 97
        0
 75
     0
 76
     1
 52
0.0
 41
1.0
 77
     0
 78
     2
 53
44.99999999999999
 43
0.0
 44
0.0
 45
-0.0459619390912516
 46
0.0459619390912517
 79
     1
 49
1.0
 53
135.0
 43
0.0
 44
0.0
 45
0.0459619390912517
 46
0.0459619390912516
 79
     1
 49
1.0
 98
        0
  0
HATCH
  5
39D
330
1F
100
AcDbEntity
  8
0_WP_Schraffuren_Materialangaben
  6
Continuous
370
     0
100
AcDbHatch
 10
0.0
 20
0.0
 30
0.0
210
0.0
220
0.0
230
1.0
  2
_U
 70
     0
 71
     0
 91
        1
 92
        3
 72
     0
 73
     1
 93
        4
 10
-8.864999380075966
 20
21.84997213217168
 10
-8.71499938007633
 20
21.84997213217446
 10
-8.71499938007633
 20
20.01997210957881
 10
-8.864999375716582
 20
20.01997210957805
 97
        0
 75
     0
 76
     0
 52
45.00000125223908
 41
0.0899999961256981
 77
     0
 78
     1
 53
45.00000125223908
 43
0.0
 44
0.0
 45
-0.0636396089581319
 46
0.0636396061763562
 79
     0
 98
        0
  0
HATCH
  5
39E
330
1F
100
AcDbEntity
  8
0_WP_Schraffuren_Materialangaben
  6
Continuous
370
     0
100
AcDbHatch
 10
0.0
 20
0.0
 30
0.0
210
0.0
220
0.0
230
1.0
  2
_U
 70
     0
 71
     0
 91
        1
 92
        3
 72
     0
 73
     1
 93
        4
 10
-4.29999937571101
 20
22.09997213226027
 10
-4.299999375711011
 20
20.85597050146363
 10
-4.099999375712104
 20
20.85597050146363
 10
-4.099999375712104
 20
22.09997213226398
 97
        0
 75
     0
 76
     0
 52
0.0
 41
0.1000000014901161
 77
     0
 78
     1
 53
0.0
 43
0.0
 44
0.0
 45
0.0
 46
0.1000000014901161
 79
     0
 98
        0
  0
LINE
  5
39F
102
{ACAD_XDICTIONARY
360
3A0
102
}
330
1F
100
AcDbEntity
  8
0_Linien
  6
Continuous
100
AcDbLine
 10
-1.148222699496593
 20
26.42094928253197
 30
0.0
 11
-1.191526730396483
 21
26.41690299310709
 31
0.0
  0
LINE
  5
3A2
102
{ACAD_XDICTIONARY
360
3A3
102
}
330
1F
100
AcDbEntity
  8
01_Linien
  6
Continuous
100
AcDbLine
 10
-13.194999375716
 20
21.84997213207281
 30
0.0
 11
-13.194999375716
 21
20.01997210955141
 31
0.0
  0
LINE
  5
3A5
102
{ACAD_XDICTIONARY
360
3A6
102
}
330
1F
100
AcDbEntity
  8
01_Linien
  6
Continuous
100
AcDbLine
 10
-15.92499875142908
 20
18.77497213215205
 30
0.0
 11
-15.22499937571614
 21
18.77497213215205
 31
0.0
  0
LINE
  5
3A8
102
{ACAD_XDICTIONARY
360
3A9
102
}
330
1F
100
AcDbEntity
  8
01_Linien
  6
Continuous
100
AcDbLine
 10
-15.92499875142908
 20
18.64997213215205
 30
0.0
 11
-15.22499937571614
 21
18.64997213215205
 31
0.0
  0
LINE
  5
3AB
102
{ACAD_XDICTIONARY
360
3AC
102
}
330
1F
100
AcDbEntity
  8
01_Linien
  6
Continuous
100
AcDbLine
 10
-14.344999375716
 20
18.77497213215205
 30
0.0
 11
-14.194999375716
 21
18.77497213215205
 31
0.0
  0
LINE
  5
3AE
102
{ACAD_XDICTIONARY
360
3AF
102
}
330
1F
100
AcDbEntity
  8
01_Linien
  6
Continuous
100
AcDbLine
 10
-14.344999375716
 20
18.6499721321517
 30
0.0
 11
-14.04499937571545
 21
18.6499721321517
 31
0.0
  0
LINE
  5
3B1
102
{ACAD_XDICTIONARY
360
3B2
102
}
330
1F
100
AcDbEntity
  8
01_Linien
  6
Continuous
100
AcDbLine
 10
-8.714999375716946
 20
18.65497213215147
 30
0.0
 11
-8.714999375716946
 21
18.82497213215147
 31
0.0
  0
LINE
  5
3B4
102
{ACAD_XDICTIONARY
360
3B5
102
}
330
1F
100
AcDbEntity
  8
01_Linien
  6
Continuous
100
AcDbLine
 10
-8.864999375716582
 20
17.88497213215147
 30
0.0
 11
-8.864999375716582
 21
18.82497213215147
 31
0.0
  0
LINE
  5
3B7
102
{ACAD_XDICTIONARY
360
3B8
102
}
330
1F
100
AcDbEntity
  8
01_Linien
  6
Continuous
100
AcDbLine
 10
-17.15985153424328
 20
22.09997213202177
 30
0.0
 11
-4.099999375712104
 21
22.09997213226398
 31
0.0
  0
LINE
  5
3BA
102
{ACAD_XDICTIONARY
360
3BB
102
}
330
1F
100
AcDbEntity
  8
01_Linien
  6
Continuous
100
AcDbLine
 10
-8.189999375815347
 20
22.29997213218418
 30
0.0
 11
-4.049999375711013
 21
22.29997213226097
 31
0.0
  0
LINE
  5
3BD
102
{ACAD_XDICTIONARY
360
3BE
102
}
330
1F
100
AcDbEntity
  8
01_Linien
  6
Continuous
100
AcDbLine
 10
-16.10499875142916
 20
21.84997213225563
 30
0.0
 11
-16.10499875142916
 21
18.29997213215171
 31
0.0
  0
LINE
  5
3C0
102
{ACAD_XDICTIONARY
360
3C1
102
}
330
1F
100
AcDbEntity
  8
01_Linien
  6
Continuous
100
AcDbLine
 10
-15.92499875142908
 20
21.84997213225563
 30
0.0
 11
-15.92499875142908
 21
18.29997213215171
 31
0.0
  0
LINE
  5
3C3
102
{ACAD_XDICTIONARY
360
3C4
102
}
330
1F
100
AcDbEntity
  8
01_Linien
  6
Continuous
100
AcDbLine
 10
-8.71499938007633
 20
20.01997210957881
 30
0.0
 11
-9.374999375716943
 21
20.0199721095755
 31
0.0
  0
LINE
  5
3C6
102
{ACAD_XDICTIONARY
360
3C7
102
}
330
1F
100
AcDbEntity
  8
01_Linien
  6
Continuous
100
AcDbLine
 10
-8.864999375716582
 20
19.86997213222172
 30
0.0
 11
-9.374999375716943
 21
19.86997213221899
 31
0.0
  0
LINE
  5
3C9
102
{ACAD_XDICTIONARY
360
3CA
102
}
330
1F
100
AcDbEntity
  8
01_Linien
  6
Continuous
100
AcDbLine
 10
-4.549999375711014
 20
18.65497213215147
 30
0.0
 11
-4.549999375711014
 21
20.93696887077578
 31
0.0
  0
LINE
  5
3CC
102
{ACAD_XDICTIONARY
360
3CD
102
}
330
1F
100
AcDbEntity
  8
01_Linien
  6
Continuous
100
AcDbLine
 10
-13.04499937571614
 20
20.01997210955216
 30
0.0
 11
-13.04499937571614
 21
21.8499721320756
 31
0.0
  0
LINE
  5
3CF
102
{ACAD_XDICTIONARY
360
3D0
102
}
330
1F
100
AcDbEntity
  8
01_Linien
  6
Continuous
100
AcDbLine
 10
-8.864999380075966
 20
20.01997210957805
 30
0.0
 11
-8.864999380075966
 21
21.84997213225563
 31
0.0
  0
LINE
  5
3D2
102
{ACAD_XDICTIONARY
360
3D3
102
}
330
1F
100
AcDbEntity
  8
01_Linien
  6
Continuous
100
AcDbLine
 10
-8.71499938007633
 20
19.70497213215147
 30
0.0
 11
-8.71499938007633
 21
21.84997213225563
 31
0.0
  0
LINE
  5
3D5
102
{ACAD_XDICTIONARY
360
3D6
102
}
330
1F
100
AcDbEntity
  8
01_Linien
  6
Continuous
100
AcDbLine
 10
-10.25499937571694
 20
20.01997213222165
 30
0.0
 11
-10.25499937571694
 21
19.86997213222165
 31
0.0
  0
LINE
  5
3D8
102
{ACAD_XDICTIONARY
360
3D9
102
}
330
1F
100
AcDbEntity
  8
01_Linien
  6
Continuous
100
AcDbLine
 10
-9.374999375716943
 20
20.01997213222165
 30
0.0
 11
-9.374999375716943
 21
19.86997213222165
 31
0.0
  0
LINE
  5
3DB
102
{ACAD_XDICTIONARY
360
3DC
102
}
330
1F
100
AcDbEntity
  8
01_Linien
  6
Continuous
100
AcDbLine
 10
-8.864999375716582
 20
19.70497213215147
 30
0.0
 11
-8.714999375716946
 21
19.70497213215147
 31
0.0
  0
LINE
  5
3DE
102
{ACAD_XDICTIONARY
360
3DF
102
}
330
1F
100
AcDbEntity
  8
01_Linien
  6
Continuous
100
AcDbLine
 10
-8.864999375716582
 20
18.82497213215147
 30
0.0
 11
-8.714999375716582
 21
18.82497213215147
 31
0.0
  0
LINE
  5
3E1
102
{ACAD_XDICTIONARY
360
3E2
102
}
330
1F
100
AcDbEntity
  8
01_Linien
  6
Continuous
100
AcDbLine
 10
-16.10499875142916
 20
18.29997213215171
 30
0.0
 11
-15.92499875142908
 21
18.29997213215171
 31
0.0
  0
LINE
  5
3E4
102
{ACAD_XDICTIONARY
360
3E5
102
}
330
1F
100
AcDbEntity
  8
01_Linien
  6
Continuous
100
AcDbLine
 10
-15.22499937571614
 20
18.77497213215205
 30
0.0
 11
-15.22499937571614
 21
18.64997213215205
 31
0.0
  0
LINE
  5
3E7
102
{ACAD_XDICTIONARY
360
3E8
102
}
330
1F
100
AcDbEntity
  8
01_Linien
  6
Continuous
100
AcDbLine
 10
-14.344999375716
 20
18.77497213215205
 30
0.0
 11
-14.344999375716
 21
18.64997213215205
 31
0.0
  0
LINE
  5
3EA
102
{ACAD_XDICTIONARY
360
3EB
102
}
330
1F
100
AcDbEntity
  8
01_Linien
  6
Continuous
100
AcDbLine
 10
-10.25499937571694
 20
19.86997213221422
 30
0.0
 11
-14.04499937571545
 21
19.86997213219392
 31
0.0
  0
LINE
  5
3ED
102
{ACAD_XDICTIONARY
360
3EE
102
}
330
1F
100
AcDbEntity
  8
01_Linien
  6
Continuous
100
AcDbLine
 10
-10.25499937571694
 20
20.0199721095711
 30
0.0
 11
-14.194999375716
 21
20.01997210955141
 31
0.0
  0
LINE
  5
3F0
102
{ACAD_XDICTIONARY
360
3F1
102
}
330
1F
100
AcDbEntity
  8
01_Linien
  6
Continuous
100
AcDbLine
 10
-8.864999375716582
 20
19.86997213222165
 30
0.0
 11
-8.864999375716582
 21
19.70497213215147
 31
0.0
  0
LINE
  5
3F3
102
{ACAD_XDICTIONARY
360
3F4
102
}
330
1F
100
AcDbEntity
  8
01_Linien
  6
Continuous
100
AcDbLine
 10
-8.714999375716946
 20
17.88497213215147
 30
0.0
 11
-8.714999375716946
 21
18.50497213215147
 31
0.0
  0
LINE
  5
3F6
102
{ACAD_XDICTIONARY
360
3F7
102
}
330
1F
100
AcDbEntity
  8
01_Linien
  6
Continuous
100
AcDbLine
 10
-8.714999375716946
 20
17.88497213215147
 30
0.0
 11
-8.864999375716582
 21
17.88497213215147
 31
0.0
  0
LINE
  5
3F9
102
{ACAD_XDICTIONARY
360
3FA
102
}
330
1F
100
AcDbEntity
  8
01_Linien
  6
Continuous
100
AcDbLine
 10
-5.829999375710795
 20
18.47997213215147
 30
0.0
 11
-5.829999375710795
 21
18.65497213215147
 31
0.0
  0
LINE
  5
3FC
102
{ACAD_XDICTIONARY
360
3FD
102
}
330
1F
100
AcDbEntity
  8
0_WP_4B-Detail
  6
Continuous
100
AcDbLine
 10
-4.296799375711021
 20
20.85597052105252
 30
0.0
 11
-4.297141078292486
 21
20.85597052105252
 31
0.0
  0
LINE
  5
3FF
102
{ACAD_XDICTIONARY
360
400
102
}
330
1F
100
AcDbEntity
  8
0_WP_4B-Detail
  6
Continuous
100
AcDbLine
 10
-4.299999375711013
 20
20.87068220147805
 30
0.0
 11
-4.299999375711013
 21
20.86125882628651
 31
0.0
  0
LINE
  5
402
102
{ACAD_XDICTIONARY
360
403
102
}
330
1F
100
AcDbEntity
  8
0_WP_4B-Detail
  6
Continuous
100
AcDbLine
 10
-4.299999375711013
 20
20.85597052105252
 30
0.0
 11
-4.299999375711013
 21
20.85677052105255
 31
0.0
  0
LINE
  5
405
102
{ACAD_XDICTIONARY
360
406
102
}
330
1F
100
AcDbEntity
  8
0_WP_4B-Detail
  6
Continuous
100
AcDbLine
 10
-4.299999375711013
 20
20.86125882628651
 30
0.0
 11
-4.299999375711013
 21
20.85677052105255
 31
0.0
  0
LINE
  5
408
102
{ACAD_XDICTIONARY
360
409
102
}
330
1F
100
AcDbEntity
  8
0_WP_4B-Detail
  6
Continuous
100
AcDbLine
 10
-4.299999375711013
 20
20.87517052105253
 30
0.0
 11
-4.299999375711013
 21
20.87068220147805
 31
0.0
  0
LINE
  5
40B
102
{ACAD_XDICTIONARY
360
40C
102
}
330
1F
100
AcDbEntity
  8
0_WP_4B-Detail
  6
Continuous
100
AcDbLine
 10
-4.299999375711013
 20
20.87517052105253
 30
0.0
 11
-4.299999375711013
 21
20.8759705210525
 31
0.0
  0
LINE
  5
40E
102
{ACAD_XDICTIONARY
360
40F
102
}
330
1F
100
AcDbEntity
  8
01_Linien
  6
Continuous
100
AcDbLine
 10
-4.099999375712104
 20
20.85597050146363
 30
0.0
 11
-4.299999375711011
 21
20.85597050146363
 31
0.0
  0
LINE
  5
411
102
{ACAD_XDICTIONARY
360
412
102
}
330
1F
100
AcDbEntity
  8
01_Linien
  6
Continuous
100
AcDbLine
 10
-17.19511692996007
 20
22.29997213202227
 30
0.0
 11
-4.099999375712105
 21
22.29997213226513
 31
0.0
  0
LINE
  5
414
102
{ACAD_XDICTIONARY
360
415
102
}
330
1F
100
AcDbEntity
  8
01_Linien
  6
Continuous
100
AcDbLine
 10
-19.64999937571945
 20
24.16536198138397
 30
0.0
 11
-19.64999937571945
 21
25.96680223436497
 31
0.0
  0
LINE
  5
417
102
{ACAD_XDICTIONARY
360
418
102
}
330
1F
100
AcDbEntity
  8
01_Linien
  6
Continuous
100
AcDbLine
 10
-14.194999375716
 20
20.01997210955141
 30
0.0
 11
-14.194999375716
 21
18.6549721321517
 31
0.0
  0
LINE
  5
41A
102
{ACAD_XDICTIONARY
360
41B
102
}
330
1F
100
AcDbEntity
  8
01_Linien
  6
Strich_2_1mm
100
AcDbLine
 10
-14.194999375716
 20
20.01997210955141
 30
0.0
 11
-14.194999375716
 21
21.84997213225563
 31
0.0
  0
LINE
  5
41D
102
{ACAD_XDICTIONARY
360
41E
102
}
330
1F
100
AcDbEntity
  8
0_WP_Plankopf_1_50_(AaA)
  6
Continuous
100
AcDbLine
 10
-28.97032373930529
 20
-3.585529189505127
 30
0.0
 11
-28.97032373930529
 21
26.41447081049487
 31
0.0
  0
LWPOLYLINE
  5
420
330
1F
100
AcDbEntity
  8
01_Linien
  6
Continuous
100
AcDbPolyline
 90
        4
 70
   129
 43
0.0
 10
-5.829999375710795
 20
18.65497213215147
 10
-4.549999375711014
 20
18.65497213215147
 10
-4.549999375711014
 20
18.47997213215147
 10
-5.829999375710795
 20
18.47997213215147
  0
LWPOLYLINE
  5
421
330
1F
100
AcDbEntity
  8
01_Linien
  6
Continuous
100
AcDbPolyline
 90
        8
 70
   129
 43
0.0
 10
-5.829999375710795
 20
18.65497213215147
 10
-8.714999375716946
 20
18.65497213215147
 10
-8.714999375716946
 20
18.82497213215147
 10
-8.864999375716582
 20
18.82497213215147
 10
-8.864999375716582
 20
17.88497213215147
 10
-8.714999375716946
 20
17.88497213215147
 10
-8.714999375716946
 20
18.50497213215147
 10
-5.829999375710795
 20
18.50497213215147
  0
LWPOLYLINE
  5
422
330
1F
100
AcDbEntity
  8
01_Linien
  6
Continuous
100
AcDbPolyline
 90
        4
 70
   129
 43
0.0
 10
-4.549999375711014
 20
18.79997213215147
 10
-4.299999375711013
 20
18.79997213215147
 10
-4.299999375712105
 20
18.47997213215147
 10
-4.549999375711014
 20
18.47997213215147
  0
LWPOLYLINE
  5
423
330
1F
100
AcDbEntity
  8
00_Höhenlinien_gwp_gedreht
  6
Continuous
100
AcDbPolyline
 90
        4
 70
   129
 43
0.0
 10
-4.099999375712104
 20
20.85597050146363
 10
-4.29999937571101
 20
20.85597050146363
 10
-4.29999937571101
 20
22.09997213226027
 10
-4.099999375712104
 20
22.09997213226027
  0
LWPOLYLINE
  5
424
330
1F
100
AcDbEntity
  8
01_Linien
  6
Continuous
100
AcDbPolyline
 90
        4
 70
   128
 43
0.0
 10
-4.288351468449479
 20
20.93911903122577
 10
-4.549999375711014
 20
20.93196887077578
 10
-4.549999375711014
 20
21.84997213225563
 10
-17.11576978777094
 20
21.84997213225563
  0
DIMENSION
  5
425
102
{ACAD_XDICTIONARY
360
426
102
}
330
1F
100
AcDbEntity
  8
0_WP_BEMASSUNG_1_50
  6
Continuous
100
AcDbDimension
280
     0
  2
*D19
 10
-5.066473011211921
 20
18.65497213215147
 30
0.0
 11
-5.066473011211921
 21
18.0571371290556
 31
0.0
 70
   160
  1
<>
 71
     5
 42
0.1750000000000007
 73
     0
 74
     0
 75
     0
  3
ERSTELLTER_STIL__1
100
AcDbAlignedDimension
 13
-4.299999375712105
 23
18.47997213215147
 33
0.0
 14
-4.549999375711014
 24
18.65497213215147
 34
0.0
 50
90.0
100
AcDbRotatedDimension
1001
ACAD
1000
DSTYLE
1002
{
1070
   148
1040
0.0000001
1070
     4
1000

1070
    45
1040
0.0000001
1070
   174
1070
     1
1002
}
  0
DIMENSION
  5
437
102
{ACAD_XDICTIONARY
360
438
102
}
330
1F
100
AcDbEntity
  8
0_WP_BEMASSUNG_1_50
  6
Continuous
100
AcDbDimension
280
     0
  2
*D20
 10
-5.829999375710795
 20
19.10976678735829
 30
0.0
 11
-6.101444903469229
 21
19.18676678843117
 31
0.0
 70
   161
  1
<>
 71
     5
 42
2.885000000006151
 73
     0
 74
     0
 75
     0
  3
ERSTELLTER_STIL__6
100
AcDbAlignedDimension
 13
-8.714999375716946
 23
18.65497213215147
 33
0.0
 14
-5.829999375710795
 24
18.65497213215147
 34
0.0
1001
ACAD
1000
DSTYLE
1002
{
1070
   148
1040
0.0000001
1070
     4
1000

1070
    45
1040
0.0000001
1070
   174
1070
     1
1002
}
  0
DIMENSION
  5
446
102
{ACAD_XDICTIONARY
360
447
102
}
330
1F
100
AcDbEntity
  8
0_WP_BEMASSUNG_1_50
  6
Continuous
100
AcDbDimension
280
     0
  2
*D21
 10
-14.58656601344108
 20
20.01997210955141
 30
0.0
 11
-14.58656601344108
 21
19.52440523079339
 31
0.0
 70
   161
  1
<>
 71
     5
 42
1.24499997739936
 73
     0
 74
     0
 75
     0
  3
ERSTELLTER_STIL__1
100
AcDbAlignedDimension
 13
-14.194999375716
 23
18.77497213215205
 33
0.0
 14
-14.194999375716
 24
20.01997210955141
 34
0.0
1001
ACAD
1000
DSTYLE
1002
{
1070
   148
1040
0.0000001
1070
     4
1000

1070
    45
1040
0.0000001
1070
   174
1070
     1
1002
}
  0
LEADER
  5
455
330
1F
100
AcDbEntity
  8
01_Linien
  6
Continuous
100
AcDbLeader
  3
ERSTELLTER_STIL__8
 73
     0
 74
     0
 40
0.1837800073027611
 41
0.7444800295829772
 76
     2
 10
0.8933383387278445
 20
20.07616254294711
 30
0.0
 10
1.843283190558974
 20
20.0556887295855
 30
0.0
340
456
211
0.9999623948674035
221
-0.008672303675901103
231
0.0
1001
ACAD
1000
DSTYLE
1002
{
1070
   179
1070
     4
1070
   148
1040
0.0000001
1070
     4
1000

1070
   342
1005
18B
1070
   178
1070
   256
1070
    45
1040
0.0000001
1070
    73
1070
     0
1070
    74
1070
     0
1070
   345
1005
16
1002
}
  0
MTEXT
  5
456
102
{ACAD_REACTORS
330
455
102
}
102
{ACAD_XDICTIONARY
360
457
102
}
330
1F
100
AcDbEntity
  8
01_Linien
  6
ByBlock
100
AcDbMText
 10
1.93327980609704
 20
20.05490822225467
 30
0.0
 40
0.1800000071525574
 41
0.0
 46
0.0
 71
     4
 72
     1
  1
\A1;\A1;\A1;{\fArial|b0|i0|c0|p34;547.32}
 11
0.9999623948674035
 21
-0.008672303675901103
 31
0.0
 73
     1
 44
1.0
  0
LEADER
  5
459
330
1F
100
AcDbEntity
  8
01_Linien
  6
Continuous
100
AcDbLeader
  3
ERSTELLTER_STIL__8
 73
     0
 74
     0
 40
0.1861200073957443
 41
2.363940093934536
 76
     2
 10
0.2357477944377185
 20
17.524072953701
 30
0.0
 10
2.214148233044702
 20
17.50141582001132
 30
0.0
340
45A
211
0.9999890649651104
221
-0.00467653185643613
231
0.0
1001
ACAD
1000
DSTYLE
1002
{
1070
   179
1070
     4
1070
   148
1040
0.0000001
1070
     4
1000

1070
   342
1005
18B
1070
   178
1070
   256
1070
    45
1040
0.0000001
1070
    73
1070
     0
1070
    74
1070
     0
1070
   345
1005
16
1002
}
  0
MTEXT
  5
45A
102
{ACAD_REACTORS
330
459
102
}
102
{ACAD_XDICTIONARY
360
45B
102
}
330
1F
100
AcDbEntity
  8
01_Linien
  6
ByBlock
100
AcDbMText
 10
2.304147248891562
 20
17.50099493214424
 30
0.0
 40
0.1800000071525574
 41
0.0
 46
0.0
 71
     4
 72
     1
  1
\A1;\A1;\A1;{\fArial|b0|i0|c0|p34;OK Mauer ca. 548.80}
 11
0.9999890649651104
 21
-0.00467653185643613
 31
0.0
 73
     1
 44
1.0
  0
LEADER
  5
45D
330
1F
100
AcDbEntity
  8
01_Linien
  6
Continuous
100
AcDbLeader
  3
ERSTELLTER_STIL__8
 73
     0
 74
     0
 40
0.1861200073957443
 41
2.365020093977451
 76
     2
 10
0.2350246010019716
 20
23.23973242126534
 30
0.0
 10
2.156191826437881
 20
23.71269979155023
 30
0.0
340
45E
211
0.9693654083247027
221
0.2456230957045413
231
0.0
1001
ACAD
1000
DSTYLE
1002
{
1070
   179
1070
     4
1070
   148
1040
0.0000001
1070
     4
1000

1070
   342
1005
18B
1070
   178
1070
   256
1070
    45
1040
0.0000001
1070
    73
1070
     0
1070
    74
1070
     0
1070
   345
1005
16
1002
}
  0
MTEXT
  5
45E
102
{ACAD_REACTORS
330
45D
102
}
102
{ACAD_XDICTIONARY
360
45F
102
}
330
1F
100
AcDbEntity
  8
01_Linien
  6
ByBlock
100
AcDbMText
 10
2.243434713187105
 20
23.73480587016364
 30
0.0
 40
0.1800000071525574
 41
0.0
 46
0.0
 71
     4
 72
     1
  1
\A1;{\fArial|b0|i0|c0|p34;OK Mauer ca. 549.79}
 11
0.9693654083247027
 21
0.2456230957045413
 31
0.0
 73
     1
 44
1.0
  0
LEADER
  5
461
330
1F
100
AcDbEntity
  8
0_WP_Plankopf_1_50_(AaA)
  6
Continuous
100
AcDbLeader
  3
ERSTELLTER_STIL__9
 73
     0
 75
     1
 40
0.1828800072669983
 41
1.897740075409413
 76
     3
 10
0.9616737862169167
 20
16.05730627056626
 30
0.0
 10
0.8016737862169165
 20
16.16410309801638
 30
0.0
 10
0.6876737862169165
 20
16.16410309801638
 30
0.0
340
462
1001
ACAD
1000
DSTYLE
1002
{
1070
   179
1070
     4
1070
   148
1040
0.0000001
1070
     4
1000

1070
   342
1005
18F
1070
   178
1070
   256
1070
    45
1040
0.0000001
1070
   345
1005
16
1002
}
  0
MTEXT
  5
462
102
{ACAD_REACTORS
330
461
102
}
102
{ACAD_XDICTIONARY
360
463
102
}
330
1F
100
AcDbEntity
  8
0_WP_Plankopf_1_50_(AaA)
  6
ByBlock
100
AcDbMText
 10
0.5976737862169166
 20
16.16410309801638
 30
0.0
 40
0.1800000071525574
 41
0.0
 46
0.0
 71
     6
 72
     1
  1
\A1;\A1;\A1;{\fArial|b0|i0|c0|p34;Knickarmmarkise}
 73
     1
 44
1.0
  0
MTEXT
  5
465
102
{ACAD_XDICTIONARY
360
466
102
}
330
1F
100
AcDbEntity
  8
01_Linien
  6
Continuous
100
AcDbMText
 10
-19.98366404033421
 20
24.02141229524658
 30
0.0
 40
0.1750000026490953
 41
0.0
 46
0.0
 71
     3
 72
     1
  1
\A1;SN Q4
  7
ERSTELLTER_STIL_3
 11
0.642970308641489
 21
0.7658911033596542
 31
0.0
 73
     1
 44
1.0
  0
MTEXT
  5
468
102
{ACAD_XDICTIONARY
360
469
102
}
330
1F
100
AcDbEntity
  8
01_Linien
  6
Continuous
100
AcDbMText
 10
-19.88500937508001
 20
0.399153533034223
 30
0.0
 40
0.1750000026490953
 41
0.0
 46
0.0
 71
     1
 72
     1
  1
\A1;SN Q4
  7
ERSTELLTER_STIL_3
 11
6.123233995736766E-17
 21
1.0
 31
0.0
 73
     1
 44
1.0
  0
MTEXT
  5
46B
102
{ACAD_XDICTIONARY
360
46C
102
}
330
1F
100
AcDbEntity
  8
01_Linien
  6
Continuous
100
AcDbMText
 10
-14.10699168287159
 20
21.14458904669692
 30
0.0
 40
0.0799999997019768
 41
0.8454882837266187
 46
0.0
 71
     1
 72
     1
  1
\A1;Nische für späteren Duscheneinbau
  7
ERSTELLTER_STIL_3
 73
     1
 44
0.9381651742200441
  0
LWPOLYLINE
  5
46E
330
1F
100
AcDbEntity
  8
01_Linien
  6
Strichpunkt_3_1_1mm_Achsen
100
AcDbPolyline
 90
        6
 70
   128
 43
0.0
 10
-19.74999937571944
 20
24.56536198138397
 10
-20.14999937571944
 20
24.16536198138397
 10
-19.64999937571945
 20
24.16536198138397
 10
-19.64999937571945
 20
0.2192102542957999
 10
-20.14999937571945
 20
0.2192102542957999
 10
-19.72705779521119
 20
-0.0979252613491815
  0
LWPOLYLINE
  5
46F
330
1F
100
AcDbEntity
  8
0_WP_Plankopf_1_50_(AaA)
  6
Continuous
100
AcDbPolyline
 90
        4
 70
   129
 43
0.0
 10
-28.97032373930529
 20
26.41447081049487
 10
13.02967626069471
 20
26.41447081049487
 10
13.02967626069471
 20
-3.585529189505127
 10
-28.97032373930529
 20
-3.585529189505127
  0
LINE
  5
470
102
{ACAD_XDICTIONARY
360
471
102
}
330
1F
100
AcDbEntity
  8
0_WP_Plankopf_1_50_(AaA)
  6
Continuous
100
AcDbLine
 10
-28.97032373930529
 20
-3.585529189505127
 30
0.0
 11
-28.97032373930529
 21
-2.78552918950513
 31
0.0
  0
MTEXT
  5
473
102
{ACAD_XDICTIONARY
360
474
102
}
330
1F
100
AcDbEntity
  8
0_WP_Plankopf_1_50_(AaA)
  6
Continuous
100
AcDbMText
 10
0.8953295225993188
 20
14.96716930472627
 30
0.0
 40
0.1250000670552254
 41
3.465780265625085
 46
0.0
 71
     3
 72
     1
  1
\A1;Masse am Bau:\PSämtliche Masse sind vor der Ausführung vom Unternehmer auf eigene Verantwortung zu kontrollieren, bzw. am Bau zu nehmen. Unstimmigkeiten sind \Punverzüglich der Bauleitung mitzuteilen.
  7
ERSTELLTER_STIL_1
 73
     1
 44
0.6070814881175318
  0
VIEWPORT
  5
477
330
1B
100
AcDbEntity
 67
     1
  8
0
100
AcDbViewport
 10
-19.21922631916005
 20
11.97234041614391
 30
0.0
 40
65.17935329916519
 41
40.42448718479235
 68
     1
 69
     1
 12
-19.21922631916005
 22
11.97234041614391
 13
0.0
 23
0.0
 14
0.5
 24
0.5
 15
0.5
 25
0.5
 16
0.0
 26
0.0
 36
1.0
 17
0.0
 27
0.0
 37
0.0
 42
50.0
 43
0.0
 44
0.0
 45
40.42448718479235
 50
0.0
 51
0.0
 72
  1000
 90
    32800
  1

281
     0
 71
     1
 74
     0
110
0.0
120
0.0
130
0.0
111
1.0
121
0.0
131
0.0
112
0.0
122
1.0
132
0.0
 79
     0
146
0.0
170
     0
 61
     5
292
     1
282
     1
141
0.0
142
0.0
 63
   256
  0
ENDSEC
  0
SECTION
  2
OBJECTS
  0
DICTIONARY
  5
C
330
0
100
AcDbDictionary
281
     1
  3
ACAD_GROUP
350
D
  3
ACAD_LAYOUT
350
1A
  3
ACAD_MATERIAL
350
3B
  3
ACAD_MLEADERSTYLE
350
192
  3
ACAD_MLINESTYLE
350
17
  3
ACAD_PLOTSETTINGS
350
19
  3
ACAD_PLOTSTYLENAME
350
E
  3
ACAD_SCALELIST
350
479
  3
ACAD_TABLESTYLE
350
1A1
  3
ACAD_VISUALSTYLE
350
2A
  3
ACDB_RECOMPOSE_DATA
350
49F
  3
AcDbVariableDictionary
350
49B
  0
SUN
  5
3F
330
29
100
AcDbSun
 90
        1
290
     0
 63
     7
421
 16777215
 40
1.0
291
     1
 91
  2455826
 92
 54000000
292
     0
 70
     2
 71
   256
280
     1
  0
DICTIONARY
  5
195
330
1F
100
AcDbDictionary
280
     1
281
     1
  3
ACAD_GEOGRAPHICDATA
360
196
  0
DICTIONARY
  5
1B2
330
1B1
100
AcDbDictionary
280
     1
281
     1
  3
TC_EXTENDED_DATA
360
1B3
  0
DICTIONARY
  5
1B5
330
1B4
100
AcDbDictionary
280
     1
281
     1
  3
TC_EXTENDED_DATA
360
1B6
  0
DICTIONARY
  5
1B8
330
1B7
100
AcDbDictionary
280
     1
281
     1
  3
TC_EXTENDED_DATA
360
1B9
  0
DICTIONARY
  5
1BB
330
1BA
100
AcDbDictionary
280
     1
281
     1
  3
TC_EXTENDED_DATA
360
1BC
  0
DICTIONARY
  5
1BE
330
1BD
100
AcDbDictionary
280
     1
281
     1
  3
TC_EXTENDED_DATA
360
1BF
  0
DICTIONARY
  5
1C1
330
1C0
100
AcDbDictionary
280
     1
281
     1
  3
TC_EXTENDED_DATA
360
1C2
  0
DICTIONARY
  5
1C4
330
1C3
100
AcDbDictionary
280
     1
281
     1
  3
TC_EXTENDED_DATA
360
1C5
  0
DICTIONARY
  5
1C7
330
1C6
100
AcDbDictionary
280
     1
281
     1
  3
TC_EXTENDED_DATA
360
1C8
  0
DICTIONARY
  5
1DB
330
1DA
100
AcDbDictionary
280
     1
281
     1
  3
TC_EXTENDED_DATA
360
1DC
  0
DICTIONARY
  5
1DE
330
1DD
100
AcDbDictionary
280
     1
281
     1
  3
TC_EXTENDED_DATA
360
1DF
  0
DICTIONARY
  5
1E1
330
1E0
100
AcDbDictionary
280
     1
281
     1
  3
TC_EXTENDED_DATA
360
1E2
  0
DICTIONARY
  5
1E4
330
1E3
100
AcDbDictionary
280
     1
281
     1
  3
TC_EXTENDED_DATA
360
1E5
  0
DICTIONARY
  5
1E7
330
1E6
100
AcDbDictionary
280
     1
281
     1
  3
TC_EXTENDED_DATA
360
1E8
  0
DICTIONARY
  5
1EA
330
1E9
100
AcDbDictionary
280
     1
281
     1
  3
TC_EXTENDED_DATA
360
1EB
  0
DICTIONARY
  5
1ED
330
1EC
100
AcDbDictionary
280
     1
281
     1
  3
TC_EXTENDED_DATA
360
1EE
  0
DICTIONARY
  5
1F0
330
1EF
100
AcDbDictionary
280
     1
281
     1
  3
TC_EXTENDED_DATA
360
1F1
  0
DICTIONARY
  5
204
330
203
100
AcDbDictionary
280
     1
281
     1
  3
TC_EXTENDED_DATA
360
205
  0
DICTIONARY
  5
207
330
206
100
AcDbDictionary
280
     1
281
     1
  3
TC_EXTENDED_DATA
360
208
  0
DICTIONARY
  5
20A
330
209
100
AcDbDictionary
280
     1
281
     1
  3
TC_EXTENDED_DATA
360
20B
  0
DICTIONARY
  5
20D
330
20C
100
AcDbDictionary
280
     1
281
     1
  3
TC_EXTENDED_DATA
360
20E
  0
DICTIONARY
  5
210
330
20F
100
AcDbDictionary
280
     1
281
     1
  3
TC_EXTENDED_DATA
360
211
  0
DICTIONARY
  5
213
330
212
100
AcDbDictionary
280
     1
281
     1
  3
TC_EXTENDED_DATA
360
214
  0
DICTIONARY
  5
216
330
215
100
AcDbDictionary
280
     1
281
     1
  3
TC_EXTENDED_DATA
360
217
  0
DICTIONARY
  5
219
330
218
100
AcDbDictionary
280
     1
281
     1
  3
TC_EXTENDED_DATA
360
21A
  0
DICTIONARY
  5
22D
330
22C
100
AcDbDictionary
280
     1
281
     1
  3
TC_EXTENDED_DATA
360
22E
  0
DICTIONARY
  5
230
330
22F
100
AcDbDictionary
280
     1
281
     1
  3
TC_EXTENDED_DATA
360
231
  0
DICTIONARY
  5
233
330
232
100
AcDbDictionary
280
     1
281
     1
  3
TC_EXTENDED_DATA
360
234
  0
DICTIONARY
  5
236
330
235
100
AcDbDictionary
280
     1
281
     1
  3
TC_EXTENDED_DATA
360
237
  0
DICTIONARY
  5
239
330
238
100
AcDbDictionary
280
     1
281
     1
  3
TC_EXTENDED_DATA
360
23A
  0
DICTIONARY
  5
23C
330
23B
100
AcDbDictionary
280
     1
281
     1
  3
TC_EXTENDED_DATA
360
23D
  0
DICTIONARY
  5
23F
330
23E
100
AcDbDictionary
280
     1
281
     1
  3
TC_EXTENDED_DATA
360
240
  0
DICTIONARY
  5
242
330
241
100
AcDbDictionary
280
     1
281
     1
  3
TC_EXTENDED_DATA
360
243
  0
DICTIONARY
  5
256
330
255
100
AcDbDictionary
280
     1
281
     1
  3
TC_EXTENDED_DATA
360
257
  0
DICTIONARY
  5
259
330
258
100
AcDbDictionary
280
     1
281
     1
  3
TC_EXTENDED_DATA
360
25A
  0
DICTIONARY
  5
25C
330
25B
100
AcDbDictionary
280
     1
281
     1
  3
TC_EXTENDED_DATA
360
25D
  0
DICTIONARY
  5
25F
330
25E
100
AcDbDictionary
280
     1
281
     1
  3
TC_EXTENDED_DATA
360
260
  0
DICTIONARY
  5
262
330
261
100
AcDbDictionary
280
     1
281
     1
  3
TC_EXTENDED_DATA
360
263
  0
DICTIONARY
  5
265
330
264
100
AcDbDictionary
280
     1
281
     1
  3
TC_EXTENDED_DATA
360
266
  0
DICTIONARY
  5
268
330
267
100
AcDbDictionary
280
     1
281
     1
  3
TC_EXTENDED_DATA
360
269
  0
DICTIONARY
  5
26B
330
26A
100
AcDbDictionary
280
     1
281
     1
  3
TC_EXTENDED_DATA
360
26C
  0
DICTIONARY
  5
27F
330
27E
100
AcDbDictionary
280
     1
281
     1
  3
TC_EXTENDED_DATA
360
280
  0
DICTIONARY
  5
282
330
281
100
AcDbDictionary
280
     1
281
     1
  3
TC_EXTENDED_DATA
360
283
  0
DICTIONARY
  5
285
330
284
100
AcDbDictionary
280
     1
281
     1
  3
TC_EXTENDED_DATA
360
286
  0
DICTIONARY
  5
288
330
287
100
AcDbDictionary
280
     1
281
     1
  3
TC_EXTENDED_DATA
360
289
  0
DICTIONARY
  5
28B
330
28A
100
AcDbDictionary
280
     1
281
     1
  3
TC_EXTENDED_DATA
360
28C
  0
DICTIONARY
  5
28E
330
28D
100
AcDbDictionary
280
     1
281
     1
  3
TC_EXTENDED_DATA
360
28F
  0
DICTIONARY
  5
291
330
290
100
AcDbDictionary
280
     1
281
     1
  3
TC_EXTENDED_DATA
360
292
  0
DICTIONARY
  5
294
330
293
100
AcDbDictionary
280
     1
281
     1
  3
TC_EXTENDED_DATA
360
295
  0
DICTIONARY
  5
2A8
330
2A7
100
AcDbDictionary
280
     1
281
     1
  3
TC_EXTENDED_DATA
360
2A9
  0
DICTIONARY
  5
2AB
330
2AA
100
AcDbDictionary
280
     1
281
     1
  3
TC_EXTENDED_DATA
360
2AC
  0
DICTIONARY
  5
2AE
330
2AD
100
AcDbDictionary
280
     1
281
     1
  3
TC_EXTENDED_DATA
360
2AF
  0
DICTIONARY
  5
2B1
330
2B0
100
AcDbDictionary
280
     1
281
     1
  3
TC_EXTENDED_DATA
360
2B2
  0
DICTIONARY
  5
2B4
330
2B3
100
AcDbDictionary
280
     1
281
     1
  3
TC_EXTENDED_DATA
360
2B5
  0
DICTIONARY
  5
2B7
330
2B6
100
AcDbDictionary
280
     1
281
     1
  3
TC_EXTENDED_DATA
360
2B8
  0
DICTIONARY
  5
2BA
330
2B9
100
AcDbDictionary
280
     1
281
     1
  3
TC_EXTENDED_DATA
360
2BB
  0
DICTIONARY
  5
2BD
330
2BC
100
AcDbDictionary
280
     1
281
     1
  3
TC_EXTENDED_DATA
360
2BE
  0
DICTIONARY
  5
2D1
330
2D0
100
AcDbDictionary
280
     1
281
     1
  3
TC_EXTENDED_DATA
360
2D2
  0
DICTIONARY
  5
2D4
330
2D3
100
AcDbDictionary
280
     1
281
     1
  3
TC_EXTENDED_DATA
360
2D5
  0
DICTIONARY
  5
2D7
330
2D6
100
AcDbDictionary
280
     1
281
     1
  3
TC_EXTENDED_DATA
360
2D8
  0
DICTIONARY
  5
2DA
330
2D9
100
AcDbDictionary
280
     1
281
     1
  3
TC_EXTENDED_DATA
360
2DB
  0
DICTIONARY
  5
2DD
330
2DC
100
AcDbDictionary
280
     1
281
     1
  3
TC_EXTENDED_DATA
360
2DE
  0
DICTIONARY
  5
2E0
330
2DF
100
AcDbDictionary
280
     1
281
     1
  3
TC_EXTENDED_DATA
360
2E1
  0
DICTIONARY
  5
2E3
330
2E2
100
AcDbDictionary
280
     1
281
     1
  3
TC_EXTENDED_DATA
360
2E4
  0
DICTIONARY
  5
2E6
330
2E5
100
AcDbDictionary
280
     1
281
     1
  3
TC_EXTENDED_DATA
360
2E7
  0
DICTIONARY
  5
2FA
330
2F9
100
AcDbDictionary
280
     1
281
     1
  3
TC_EXTENDED_DATA
360
2FB
  0
DICTIONARY
  5
2FD
330
2FC
100
AcDbDictionary
280
     1
281
     1
  3
TC_EXTENDED_DATA
360
2FE
  0
DICTIONARY
  5
300
330
2FF
100
AcDbDictionary
280
     1
281
     1
  3
TC_EXTENDED_DATA
360
301
  0
DICTIONARY
  5
303
330
302
100
AcDbDictionary
280
     1
281
     1
  3
TC_EXTENDED_DATA
360
304
  0
DICTIONARY
  5
306
330
305
100
AcDbDictionary
280
     1
281
     1
  3
TC_EXTENDED_DATA
360
307
  0
DICTIONARY
  5
309
330
308
100
AcDbDictionary
280
     1
281
     1
  3
TC_EXTENDED_DATA
360
30A
  0
DICTIONARY
  5
30C
330
30B
100
AcDbDictionary
280
     1
281
     1
  3
TC_EXTENDED_DATA
360
30D
  0
DICTIONARY
  5
30F
330
30E
100
AcDbDictionary
280
     1
281
     1
  3
TC_EXTENDED_DATA
360
310
  0
DICTIONARY
  5
323
330
322
100
AcDbDictionary
280
     1
281
     1
  3
TC_EXTENDED_DATA
360
324
  0
DICTIONARY
  5
326
330
325
100
AcDbDictionary
280
     1
281
     1
  3
TC_EXTENDED_DATA
360
327
  0
DICTIONARY
  5
329
330
328
100
AcDbDictionary
280
     1
281
     1
  3
TC_EXTENDED_DATA
360
32A
  0
DICTIONARY
  5
32C
330
32B
100
AcDbDictionary
280
     1
281
     1
  3
TC_EXTENDED_DATA
360
32D
  0
DICTIONARY
  5
32F
330
32E
100
AcDbDictionary
280
     1
281
     1
  3
TC_EXTENDED_DATA
360
330
  0
DICTIONARY
  5
332
330
331
100
AcDbDictionary
280
     1
281
     1
  3
TC_EXTENDED_DATA
360
333
  0
DICTIONARY
  5
335
330
334
100
AcDbDictionary
280
     1
281
     1
  3
TC_EXTENDED_DATA
360
336
  0
DICTIONARY
  5
338
330
337
100
AcDbDictionary
280
     1
281
     1
  3
TC_EXTENDED_DATA
360
339
  0
DICTIONARY
  5
34C
330
34B
100
AcDbDictionary
280
     1
281
     1
  3
TC_EXTENDED_DATA
360
34D
  0
DICTIONARY
  5
34F
330
34E
100
AcDbDictionary
280
     1
281
     1
  3
TC_EXTENDED_DATA
360
350
  0
DICTIONARY
  5
352
330
351
100
AcDbDictionary
280
     1
281
     1
  3
TC_EXTENDED_DATA
360
353
  0
DICTIONARY
  5
355
330
354
100
AcDbDictionary
280
     1
281
     1
  3
TC_EXTENDED_DATA
360
356
  0
DICTIONARY
  5
358
330
357
100
AcDbDictionary
280
     1
281
     1
  3
TC_EXTENDED_DATA
360
359
  0
DICTIONARY
  5
35B
330
35A
100
AcDbDictionary
280
     1
281
     1
  3
TC_EXTENDED_DATA
360
35C
  0
DICTIONARY
  5
35E
330
35D
100
AcDbDictionary
280
     1
281
     1
  3
TC_EXTENDED_DATA
360
35F
  0
DICTIONARY
  5
361
330
360
100
AcDbDictionary
280
     1
281
     1
  3
TC_EXTENDED_DATA
360
362
  0
DICTIONARY
  5
375
330
374
100
AcDbDictionary
280
     1
281
     1
  3
TC_EXTENDED_DATA
360
376
  0
DICTIONARY
  5
37F
330
37E
100
AcDbDictionary
280
     1
281
     1
  3
TC_EXTENDED_DATA
360
380
  0
DICTIONARY
  5
382
330
381
100
AcDbDictionary
280
     1
281
     1
  3
TC_EXTENDED_DATA
360
383
  0
DICTIONARY
  5
3A0
330
39F
100
AcDbDictionary
280
     1
281
     1
  3
TC_EXTENDED_DATA
360
3A1
  0
DICTIONARY
  5
3A3
330
3A2
100
AcDbDictionary
280
     1
281
     1
  3
TC_EXTENDED_DATA
360
3A4
  0
DICTIONARY
  5
3A6
330
3A5
100
AcDbDictionary
280
     1
281
     1
  3
TC_EXTENDED_DATA
360
3A7
  0
DICTIONARY
  5
3A9
330
3A8
100
AcDbDictionary
280
     1
281
     1
  3
TC_EXTENDED_DATA
360
3AA
  0
DICTIONARY
  5
3AC
330
3AB
100
AcDbDictionary
280
     1
281
     1
  3
TC_EXTENDED_DATA
360
3AD
  0
DICTIONARY
  5
3AF
330
3AE
100
AcDbDictionary
280
     1
281
     1
  3
TC_EXTENDED_DATA
360
3B0
  0
DICTIONARY
  5
3B2
330
3B1
100
AcDbDictionary
280
     1
281
     1
  3
TC_EXTENDED_DATA
360
3B3
  0
DICTIONARY
  5
3B5
330
3B4
100
AcDbDictionary
280
     1
281
     1
  3
TC_EXTENDED_DATA
360
3B6
  0
DICTIONARY
  5
3B8
330
3B7
100
AcDbDictionary
280
     1
281
     1
  3
TC_EXTENDED_DATA
360
3B9
  0
DICTIONARY
  5
3BB
330
3BA
100
AcDbDictionary
280
     1
281
     1
  3
TC_EXTENDED_DATA
360
3BC
  0
DICTIONARY
  5
3BE
330
3BD
100
AcDbDictionary
280
     1
281
     1
  3
TC_EXTENDED_DATA
360
3BF
  0
DICTIONARY
  5
3C1
330
3C0
100
AcDbDictionary
280
     1
281
     1
  3
TC_EXTENDED_DATA
360
3C2
  0
DICTIONARY
  5
3C4
330
3C3
100
AcDbDictionary
280
     1
281
     1
  3
TC_EXTENDED_DATA
360
3C5
  0
DICTIONARY
  5
3C7
330
3C6
100
AcDbDictionary
280
     1
281
     1
  3
TC_EXTENDED_DATA
360
3C8
  0
DICTIONARY
  5
3CA
330
3C9
100
AcDbDictionary
280
     1
281
     1
  3
TC_EXTENDED_DATA
360
3CB
  0
DICTIONARY
  5
3CD
330
3CC
100
AcDbDictionary
280
     1
281
     1
  3
TC_EXTENDED_DATA
360
3CE
  0
DICTIONARY
  5
3D0
330
3CF
100
AcDbDictionary
280
     1
281
     1
  3
TC_EXTENDED_DATA
360
3D1
  0
DICTIONARY
  5
3D3
330
3D2
100
AcDbDictionary
280
     1
281
     1
  3
TC_EXTENDED_DATA
360
3D4
  0
DICTIONARY
  5
3D6
330
3D5
100
AcDbDictionary
280
     1
281
     1
  3
TC_EXTENDED_DATA
360
3D7
  0
DICTIONARY
  5
3D9
330
3D8
100
AcDbDictionary
280
     1
281
     1
  3
TC_EXTENDED_DATA
360
3DA
  0
DICTIONARY
  5
3DC
330
3DB
100
AcDbDictionary
280
     1
281
     1
  3
TC_EXTENDED_DATA
360
3DD
  0
DICTIONARY
  5
3DF
330
3DE
100
AcDbDictionary
280
     1
281
     1
  3
TC_EXTENDED_DATA
360
3E0
  0
DICTIONARY
  5
3E2
330
3E1
100
AcDbDictionary
280
     1
281
     1
  3
TC_EXTENDED_DATA
360
3E3
  0
DICTIONARY
  5
3E5
330
3E4
100
AcDbDictionary
280
     1
281
     1
  3
TC_EXTENDED_DATA
360
3E6
  0
DICTIONARY
  5
3E8
330
3E7
100
AcDbDictionary
280
     1
281
     1
  3
TC_EXTENDED_DATA
360
3E9
  0
DICTIONARY
  5
3EB
330
3EA
100
AcDbDictionary
280
     1
281
     1
  3
TC_EXTENDED_DATA
360
3EC
  0
DICTIONARY
  5
3EE
330
3ED
100
AcDbDictionary
280
     1
281
     1
  3
TC_EXTENDED_DATA
360
3EF
  0
DICTIONARY
  5
3F1
330
3F0
100
AcDbDictionary
280
     1
281
     1
  3
TC_EXTENDED_DATA
360
3F2
  0
DICTIONARY
  5
3F4
330
3F3
100
AcDbDictionary
280
     1
281
     1
  3
TC_EXTENDED_DATA
360
3F5
  0
DICTIONARY
  5
3F7
330
3F6
100
AcDbDictionary
280
     1
281
     1
  3
TC_EXTENDED_DATA
360
3F8
  0
DICTIONARY
  5
3FA
330
3F9
100
AcDbDictionary
280
     1
281
     1
  3
TC_EXTENDED_DATA
360
3FB
  0
DICTIONARY
  5
3FD
330
3FC
100
AcDbDictionary
280
     1
281
     1
  3
TC_EXTENDED_DATA
360
3FE
  0
DICTIONARY
  5
400
330
3FF
100
AcDbDictionary
280
     1
281
     1
  3
TC_EXTENDED_DATA
360
401
  0
DICTIONARY
  5
403
330
402
100
AcDbDictionary
280
     1
281
     1
  3
TC_EXTENDED_DATA
360
404
  0
DICTIONARY
  5
406
330
405
100
AcDbDictionary
280
     1
281
     1
  3
TC_EXTENDED_DATA
360
407
  0
DICTIONARY
  5
409
330
408
100
AcDbDictionary
280
     1
281
     1
  3
TC_EXTENDED_DATA
360
40A
  0
DICTIONARY
  5
40C
330
40B
100
AcDbDictionary
280
     1
281
     1
  3
TC_EXTENDED_DATA
360
40D
  0
DICTIONARY
  5
40F
330
40E
100
AcDbDictionary
280
     1
281
     1
  3
TC_EXTENDED_DATA
360
410
  0
DICTIONARY
  5
412
330
411
100
AcDbDictionary
280
     1
281
     1
  3
TC_EXTENDED_DATA
360
413
  0
DICTIONARY
  5
415
330
414
100
AcDbDictionary
280
     1
281
     1
  3
TC_EXTENDED_DATA
360
416
  0
DICTIONARY
  5
418
330
417
100
AcDbDictionary
280
     1
281
     1
  3
TC_EXTENDED_DATA
360
419
  0
DICTIONARY
  5
41B
330
41A
100
AcDbDictionary
280
     1
281
     1
  3
TC_EXTENDED_DATA
360
41C
  0
DICTIONARY
  5
41E
330
41D
100
AcDbDictionary
280
     1
281
     1
  3
TC_EXTENDED_DATA
360
41F
  0
DICTIONARY
  5
426
330
425
100
AcDbDictionary
280
     1
281
     1
  3
TC_EXTENDED_DATA
360
427
  0
DICTIONARY
  5
438
330
437
100
AcDbDictionary
280
     1
281
     1
  3
TC_EXTENDED_DATA
360
439
  0
DICTIONARY
  5
447
330
446
100
AcDbDictionary
280
     1
281
     1
  3
TC_EXTENDED_DATA
360
448
  0
DICTIONARY
  5
457
330
456
100
AcDbDictionary
280
     1
281
     1
  3
TC_EXTENDED_DATA
360
458
  0
DICTIONARY
  5
45B
330
45A
100
AcDbDictionary
280
     1
281
     1
  3
TC_EXTENDED_DATA
360
45C
  0
DICTIONARY
  5
45F
330
45E
100
AcDbDictionary
280
     1
281
     1
  3
TC_EXTENDED_DATA
360
460
  0
DICTIONARY
  5
463
330
462
100
AcDbDictionary
280
     1
281
     1
  3
TC_EXTENDED_DATA
360
464
  0
DICTIONARY
  5
466
330
465
100
AcDbDictionary
280
     1
281
     1
  3
TC_EXTENDED_DATA
360
467
  0
DICTIONARY
  5
469
330
468
100
AcDbDictionary
280
     1
281
     1
  3
TC_EXTENDED_DATA
360
46A
  0
DICTIONARY
  5
46C
330
46B
100
AcDbDictionary
280
     1
281
     1
  3
TC_EXTENDED_DATA
360
46D
  0
DICTIONARY
  5
471
330
470
100
AcDbDictionary
280
     1
281
     1
  3
TC_EXTENDED_DATA
360
472
  0
DICTIONARY
  5
474
330
473
100
AcDbDictionary
280
     1
281
     1
  3
TC_EXTENDED_DATA
360
475
  0
DICTIONARY
  5
D
102
{ACAD_REACTORS
330
C
102
}
330
C
100
AcDbDictionary
281
     1
  0
DICTIONARY
  5
1A
102
{ACAD_REACTORS
330
C
102
}
330
C
100
AcDbDictionary
281
     1
  3
_Paper_Space
350
152
  3
_Paper_Space0
350
1E
  3
Model
350
22
  0
DICTIONARY
  5
3B
102
{ACAD_REACTORS
330
C
102
}
330
C
100
AcDbDictionary
281
     1
  3
ByBlock
350
3D
  3
ByLayer
350
3C
  3
Global
350
3E
  0
DICTIONARY
  5
192
102
{ACAD_REACTORS
330
C
102
}
330
C
100
AcDbDictionary
281
     1
  3
Standard
350
193
  0
DICTIONARY
  5
17
102
{ACAD_REACTORS
330
C
102
}
330
C
100
AcDbDictionary
281
     1
  3
Standard
350
18
  0
DICTIONARY
  5
19
102
{ACAD_REACTORS
330
C
102
}
330
C
100
AcDbDictionary
281
     1
  0
ACDBDICTIONARYWDFLT
  5
E
102
{ACAD_REACTORS
330
C
102
}
330
C
100
AcDbDictionary
281
     1
  3
Normal
350
F
100
AcDbDictionaryWithDefault
340
F
  0
DICTIONARY
  5
479
102
{ACAD_REACTORS
330
C
102
}
330
C
100
AcDbDictionary
281
     1
  3
A0
350
47A
  3
A1
350
47B
  3
A2
350
47C
  3
A3
350
47D
  3
A4
350
47E
  3
A5
350
47F
  3
A6
350
480
  3
A7
350
481
  3
A8
350
482
  3
A9
350
483
  3
B0
350
484
  3
B1
350
485
  3
B2
350
486
  3
B3
350
487
  3
B4
350
488
  3
B5
350
489
  3
B6
350
48A
  3
B7
350
48B
  3
B8
350
48C
  3
B9
350
48D
  3
C0
350
48E
  3
C1
350
48F
  3
C2
350
490
  3
C3
350
491
  3
C4
350
492
  3
C5
350
493
  3
C6
350
494
  3
C7
350
495
  3
C8
350
496
  3
C9
350
497
  3
D0
350
498
  3
D1
350
499
  3
D2
350
49A
  0
DICTIONARY
  5
1A1
102
{ACAD_REACTORS
330
C
102
}
330
C
100
AcDbDictionary
281
     1
  3
Standard
350
1A2
  0
DICTIONARY
  5
2A
102
{ACAD_REACTORS
330
C
102
}
330
C
100
AcDbDictionary
281
     1
  3
2dWireframe
350
2F
  3
3D Hidden
350
31
  3
3dWireframe
350
30
  3
Basic
350
32
  3
Brighten
350
36
  3
ColorChange
350
3A
  3
Conceptual
350
34
  3
Dim
350
35
  3
Facepattern
350
39
  3
Flat
350
2B
  3
FlatWithEdges
350
2C
  3
Gouraud
350
2D
  3
GouraudWithEdges
350
2E
  3
Linepattern
350
38
  3
Realistic
350
33
  3
Thicken
350
37
  0
XRECORD
  5
49F
102
{ACAD_REACTORS
330
C
102
}
330
C
100
AcDbXrecord
280
     1
 90
        1
330
1A2
  0
DICTIONARY
  5
49B
102
{ACAD_REACTORS
330
C
102
}
330
C
100
AcDbDictionary
281
     1
  3
CANNOSCALE
350
49C
  3
GEOMARKERVISIBILITY
350
4A0
  0
GEODATA
  5
196
102
{ACAD_REACTORS
330
195
102
}
330
195
100
AcDbGeoData
 90
        2
330
1F
 70
     1
 10
0.0
 20
0.0
 30
0.0
 11
-122.394
 21
37.795
 31
0.0
 40
1.0
 91
        6
 41
1.0
 92
        6
210
0.0
220
0.0
230
1.0
 12
0.0
 22
1.0
 95
        3
141
1.0
294
     0
142
0.0
143
0.0
301

302
<georss:point>37.7950 -122.3940</georss:point>
305

306

307

 93
        0
 96
        0
  0
TCOPTIONALDATA
  5
1B3
102
{ACAD_REACTORS
330
1B2
102
}
330
1B2
100
TcOptionalData
 70
     2
 70
    32
 40
3.0
  0
TCOPTIONALDATA
  5
1B6
102
{ACAD_REACTORS
330
1B5
102
}
330
1B5
100
TcOptionalData
 70
     2
 70
    32
 40
3.0
  0
TCOPTIONALDATA
  5
1B9
102
{ACAD_REACTORS
330
1B8
102
}
330
1B8
100
TcOptionalData
 70
     2
 70
    32
 40
3.0
  0
TCOPTIONALDATA
  5
1BC
102
{ACAD_REACTORS
330
1BB
102
}
330
1BB
100
TcOptionalData
 70
     2
 70
    32
 40
3.0
  0
TCOPTIONALDATA
  5
1BF
102
{ACAD_REACTORS
330
1BE
102
}
330
1BE
100
TcOptionalData
 70
     2
 70
    32
 40
3.0
  0
TCOPTIONALDATA
  5
1C2
102
{ACAD_REACTORS
330
1C1
102
}
330
1C1
100
TcOptionalData
 70
     2
 70
    32
 40
3.0
  0
TCOPTIONALDATA
  5
1C5
102
{ACAD_REACTORS
330
1C4
102
}
330
1C4
100
TcOptionalData
 70
     2
 70
    16
  1
Arial
 70
     2
  0
TCOPTIONALDATA
  5
1C8
102
{ACAD_REACTORS
330
1C7
102
}
330
1C7
100
TcOptionalData
 70
     2
 70
    16
  1
Arial
 70
     2
  0
TCOPTIONALDATA
  5
1DC
102
{ACAD_REACTORS
330
1DB
102
}
330
1DB
100
TcOptionalData
 70
     2
 70
    32
 40
3.0
  0
TCOPTIONALDATA
  5
1DF
102
{ACAD_REACTORS
330
1DE
102
}
330
1DE
100
TcOptionalData
 70
     2
 70
    32
 40
3.0
  0
TCOPTIONALDATA
  5
1E2
102
{ACAD_REACTORS
330
1E1
102
}
330
1E1
100
TcOptionalData
 70
     2
 70
    32
 40
3.0
  0
TCOPTIONALDATA
  5
1E5
102
{ACAD_REACTORS
330
1E4
102
}
330
1E4
100
TcOptionalData
 70
     2
 70
    32
 40
3.0
  0
TCOPTIONALDATA
  5
1E8
102
{ACAD_REACTORS
330
1E7
102
}
330
1E7
100
TcOptionalData
 70
     2
 70
    32
 40
3.0
  0
TCOPTIONALDATA
  5
1EB
102
{ACAD_REACTORS
330
1EA
102
}
330
1EA
100
TcOptionalData
 70
     2
 70
    32
 40
3.0
  0
TCOPTIONALDATA
  5
1EE
102
{ACAD_REACTORS
330
1ED
102
}
330
1ED
100
TcOptionalData
 70
     2
 70
    16
  1
Arial
 70
     2
  0
TCOPTIONALDATA
  5
1F1
102
{ACAD_REACTORS
330
1F0
102
}
330
1F0
100
TcOptionalData
 70
     2
 70
    16
  1
Arial
 70
     2
  0
TCOPTIONALDATA
  5
205
102
{ACAD_REACTORS
330
204
102
}
330
204
100
TcOptionalData
 70
     2
 70
    32
 40
3.0
  0
TCOPTIONALDATA
  5
208
102
{ACAD_REACTORS
330
207
102
}
330
207
100
TcOptionalData
 70
     2
 70
    32
 40
3.0
  0
TCOPTIONALDATA
  5
20B
102
{ACAD_REACTORS
330
20A
102
}
330
20A
100
TcOptionalData
 70
     2
 70
    32
 40
3.0
  0
TCOPTIONALDATA
  5
20E
102
{ACAD_REACTORS
330
20D
102
}
330
20D
100
TcOptionalData
 70
     2
 70
    32
 40
3.0
  0
TCOPTIONALDATA
  5
211
102
{ACAD_REACTORS
330
210
102
}
330
210
100
TcOptionalData
 70
     2
 70
    32
 40
3.0
  0
TCOPTIONALDATA
  5
214
102
{ACAD_REACTORS
330
213
102
}
330
213
100
TcOptionalData
 70
     2
 70
    32
 40
3.0
  0
TCOPTIONALDATA
  5
217
102
{ACAD_REACTORS
330
216
102
}
330
216
100
TcOptionalData
 70
     2
 70
    16
  1
Arial
 70
     2
  0
TCOPTIONALDATA
  5
21A
102
{ACAD_REACTORS
330
219
102
}
330
219
100
TcOptionalData
 70
     2
 70
    16
  1
Arial
 70
     2
  0
TCOPTIONALDATA
  5
22E
102
{ACAD_REACTORS
330
22D
102
}
330
22D
100
TcOptionalData
 70
     2
 70
    32
 40
3.0
  0
TCOPTIONALDATA
  5
231
102
{ACAD_REACTORS
330
230
102
}
330
230
100
TcOptionalData
 70
     2
 70
    32
 40
3.0
  0
TCOPTIONALDATA
  5
234
102
{ACAD_REACTORS
330
233
102
}
330
233
100
TcOptionalData
 70
     2
 70
    32
 40
3.0
  0
TCOPTIONALDATA
  5
237
102
{ACAD_REACTORS
330
236
102
}
330
236
100
TcOptionalData
 70
     2
 70
    32
 40
3.0
  0
TCOPTIONALDATA
  5
23A
102
{ACAD_REACTORS
330
239
102
}
330
239
100
TcOptionalData
 70
     2
 70
    32
 40
3.0
  0
TCOPTIONALDATA
  5
23D
102
{ACAD_REACTORS
330
23C
102
}
330
23C
100
TcOptionalData
 70
     2
 70
    32
 40
3.0
  0
TCOPTIONALDATA
  5
240
102
{ACAD_REACTORS
330
23F
102
}
330
23F
100
TcOptionalData
 70
     2
 70
    16
  1
Arial
 70
     2
  0
TCOPTIONALDATA
  5
243
102
{ACAD_REACTORS
330
242
102
}
330
242
100
TcOptionalData
 70
     2
 70
    16
  1
Arial
 70
     2
  0
TCOPTIONALDATA
  5
257
102
{ACAD_REACTORS
330
256
102
}
330
256
100
TcOptionalData
 70
     2
 70
    32
 40
3.0
  0
TCOPTIONALDATA
  5
25A
102
{ACAD_REACTORS
330
259
102
}
330
259
100
TcOptionalData
 70
     2
 70
    32
 40
3.0
  0
TCOPTIONALDATA
  5
25D
102
{ACAD_REACTORS
330
25C
102
}
330
25C
100
TcOptionalData
 70
     2
 70
    32
 40
3.0
  0
TCOPTIONALDATA
  5
260
102
{ACAD_REACTORS
330
25F
102
}
330
25F
100
TcOptionalData
 70
     2
 70
    32
 40
3.0
  0
TCOPTIONALDATA
  5
263
102
{ACAD_REACTORS
330
262
102
}
330
262
100
TcOptionalData
 70
     2
 70
    32
 40
3.0
  0
TCOPTIONALDATA
  5
266
102
{ACAD_REACTORS
330
265
102
}
330
265
100
TcOptionalData
 70
     2
 70
    32
 40
3.0
  0
TCOPTIONALDATA
  5
269
102
{ACAD_REACTORS
330
268
102
}
330
268
100
TcOptionalData
 70
     2
 70
    16
  1
Arial
 70
     2
  0
TCOPTIONALDATA
  5
26C
102
{ACAD_REACTORS
330
26B
102
}
330
26B
100
TcOptionalData
 70
     2
 70
    16
  1
Arial
 70
     2
  0
TCOPTIONALDATA
  5
280
102
{ACAD_REACTORS
330
27F
102
}
330
27F
100
TcOptionalData
 70
     2
 70
    32
 40
3.0
  0
TCOPTIONALDATA
  5
283
102
{ACAD_REACTORS
330
282
102
}
330
282
100
TcOptionalData
 70
     2
 70
    32
 40
3.0
  0
TCOPTIONALDATA
  5
286
102
{ACAD_REACTORS
330
285
102
}
330
285
100
TcOptionalData
 70
     2
 70
    32
 40
3.0
  0
TCOPTIONALDATA
  5
289
102
{ACAD_REACTORS
330
288
102
}
330
288
100
TcOptionalData
 70
     2
 70
    32
 40
3.0
  0
TCOPTIONALDATA
  5
28C
102
{ACAD_REACTORS
330
28B
102
}
330
28B
100
TcOptionalData
 70
     2
 70
    32
 40
3.0
  0
TCOPTIONALDATA
  5
28F
102
{ACAD_REACTORS
330
28E
102
}
330
28E
100
TcOptionalData
 70
     2
 70
    32
 40
3.0
  0
TCOPTIONALDATA
  5
292
102
{ACAD_REACTORS
330
291
102
}
330
291
100
TcOptionalData
 70
     2
 70
    16
  1
Arial
 70
     2
  0
TCOPTIONALDATA
  5
295
102
{ACAD_REACTORS
330
294
102
}
330
294
100
TcOptionalData
 70
     2
 70
    16
  1
Arial
 70
     2
  0
TCOPTIONALDATA
  5
2A9
102
{ACAD_REACTORS
330
2A8
102
}
330
2A8
100
TcOptionalData
 70
     2
 70
    32
 40
3.0
  0
TCOPTIONALDATA
  5
2AC
102
{ACAD_REACTORS
330
2AB
102
}
330
2AB
100
TcOptionalData
 70
     2
 70
    32
 40
3.0
  0
TCOPTIONALDATA
  5
2AF
102
{ACAD_REACTORS
330
2AE
102
}
330
2AE
100
TcOptionalData
 70
     2
 70
    32
 40
3.0
  0
TCOPTIONALDATA
  5
2B2
102
{ACAD_REACTORS
330
2B1
102
}
330
2B1
100
TcOptionalData
 70
     2
 70
    32
 40
3.0
  0
TCOPTIONALDATA
  5
2B5
102
{ACAD_REACTORS
330
2B4
102
}
330
2B4
100
TcOptionalData
 70
     2
 70
    32
 40
3.0
  0
TCOPTIONALDATA
  5
2B8
102
{ACAD_REACTORS
330
2B7
102
}
330
2B7
100
TcOptionalData
 70
     2
 70
    32
 40
3.0
  0
TCOPTIONALDATA
  5
2BB
102
{ACAD_REACTORS
330
2BA
102
}
330
2BA
100
TcOptionalData
 70
     2
 70
    16
  1
Arial
 70
     2
  0
TCOPTIONALDATA
  5
2BE
102
{ACAD_REACTORS
330
2BD
102
}
330
2BD
100
TcOptionalData
 70
     2
 70
    16
  1
Arial
 70
     2
  0
TCOPTIONALDATA
  5
2D2
102
{ACAD_REACTORS
330
2D1
102
}
330
2D1
100
TcOptionalData
 70
     2
 70
    32
 40
3.0
  0
TCOPTIONALDATA
  5
2D5
102
{ACAD_REACTORS
330
2D4
102
}
330
2D4
100
TcOptionalData
 70
     2
 70
    32
 40
3.0
  0
TCOPTIONALDATA
  5
2D8
102
{ACAD_REACTORS
330
2D7
102
}
330
2D7
100
TcOptionalData
 70
     2
 70
    32
 40
3.0
  0
TCOPTIONALDATA
  5
2DB
102
{ACAD_REACTORS
330
2DA
102
}
330
2DA
100
TcOptionalData
 70
     2
 70
    32
 40
3.0
  0
TCOPTIONALDATA
  5
2DE
102
{ACAD_REACTORS
330
2DD
102
}
330
2DD
100
TcOptionalData
 70
     2
 70
    32
 40
3.0
  0
TCOPTIONALDATA
  5
2E1
102
{ACAD_REACTORS
330
2E0
102
}
330
2E0
100
TcOptionalData
 70
     2
 70
    32
 40
3.0
  0
TCOPTIONALDATA
  5
2E4
102
{ACAD_REACTORS
330
2E3
102
}
330
2E3
100
TcOptionalData
 70
     2
 70
    16
  1
Arial
 70
     2
  0
TCOPTIONALDATA
  5
2E7
102
{ACAD_REACTORS
330
2E6
102
}
330
2E6
100
TcOptionalData
 70
     2
 70
    16
  1
Arial
 70
     2
  0
TCOPTIONALDATA
  5
2FB
102
{ACAD_REACTORS
330
2FA
102
}
330
2FA
100
TcOptionalData
 70
     2
 70
    32
 40
3.0
  0
TCOPTIONALDATA
  5
2FE
102
{ACAD_REACTORS
330
2FD
102
}
330
2FD
100
TcOptionalData
 70
     2
 70
    32
 40
3.0
  0
TCOPTIONALDATA
  5
301
102
{ACAD_REACTORS
330
300
102
}
330
300
100
TcOptionalData
 70
     2
 70
    32
 40
3.0
  0
TCOPTIONALDATA
  5
304
102
{ACAD_REACTORS
330
303
102
}
330
303
100
TcOptionalData
 70
     2
 70
    32
 40
3.0
  0
TCOPTIONALDATA
  5
307
102
{ACAD_REACTORS
330
306
102
}
330
306
100
TcOptionalData
 70
     2
 70
    32
 40
3.0
  0
TCOPTIONALDATA
  5
30A
102
{ACAD_REACTORS
330
309
102
}
330
309
100
TcOptionalData
 70
     2
 70
    32
 40
3.0
  0
TCOPTIONALDATA
  5
30D
102
{ACAD_REACTORS
330
30C
102
}
330
30C
100
TcOptionalData
 70
     2
 70
    16
  1
Arial
 70
     2
  0
TCOPTIONALDATA
  5
310
102
{ACAD_REACTORS
330
30F
102
}
330
30F
100
TcOptionalData
 70
     2
 70
    16
  1
Arial
 70
     2
  0
TCOPTIONALDATA
  5
324
102
{ACAD_REACTORS
330
323
102
}
330
323
100
TcOptionalData
 70
     2
 70
    32
 40
3.0
  0
TCOPTIONALDATA
  5
327
102
{ACAD_REACTORS
330
326
102
}
330
326
100
TcOptionalData
 70
     2
 70
    32
 40
3.0
  0
TCOPTIONALDATA
  5
32A
102
{ACAD_REACTORS
330
329
102
}
330
329
100
TcOptionalData
 70
     2
 70
    32
 40
3.0
  0
TCOPTIONALDATA
  5
32D
102
{ACAD_REACTORS
330
32C
102
}
330
32C
100
TcOptionalData
 70
     2
 70
    32
 40
3.0
  0
TCOPTIONALDATA
  5
330
102
{ACAD_REACTORS
330
32F
102
}
330
32F
100
TcOptionalData
 70
     2
 70
    32
 40
3.0
  0
TCOPTIONALDATA
  5
333
102
{ACAD_REACTORS
330
332
102
}
330
332
100
TcOptionalData
 70
     2
 70
    32
 40
3.0
  0
TCOPTIONALDATA
  5
336
102
{ACAD_REACTORS
330
335
102
}
330
335
100
TcOptionalData
 70
     2
 70
    16
  1
Arial
 70
     2
  0
TCOPTIONALDATA
  5
339
102
{ACAD_REACTORS
330
338
102
}
330
338
100
TcOptionalData
 70
     2
 70
    16
  1
Arial
 70
     2
  0
TCOPTIONALDATA
  5
34D
102
{ACAD_REACTORS
330
34C
102
}
330
34C
100
TcOptionalData
 70
     2
 70
    32
 40
3.0
  0
TCOPTIONALDATA
  5
350
102
{ACAD_REACTORS
330
34F
102
}
330
34F
100
TcOptionalData
 70
     2
 70
    32
 40
3.0
  0
TCOPTIONALDATA
  5
353
102
{ACAD_REACTORS
330
352
102
}
330
352
100
TcOptionalData
 70
     2
 70
    32
 40
3.0
  0
TCOPTIONALDATA
  5
356
102
{ACAD_REACTORS
330
355
102
}
330
355
100
TcOptionalData
 70
     2
 70
    32
 40
3.0
  0
TCOPTIONALDATA
  5
359
102
{ACAD_REACTORS
330
358
102
}
330
358
100
TcOptionalData
 70
     2
 70
    32
 40
3.0
  0
TCOPTIONALDATA
  5
35C
102
{ACAD_REACTORS
330
35B
102
}
330
35B
100
TcOptionalData
 70
     2
 70
    32
 40
3.0
  0
TCOPTIONALDATA
  5
35F
102
{ACAD_REACTORS
330
35E
102
}
330
35E
100
TcOptionalData
 70
     2
 70
    16
  1
Arial
 70
     2
  0
TCOPTIONALDATA
  5
362
102
{ACAD_REACTORS
330
361
102
}
330
361
100
TcOptionalData
 70
     2
 70
    16
  1
Arial
 70
     2
  0
TCOPTIONALDATA
  5
376
102
{ACAD_REACTORS
330
375
102
}
330
375
100
TcOptionalData
 70
     2
 70
    16
  1
Arial
 70
     2
  0
TCOPTIONALDATA
  5
380
102
{ACAD_REACTORS
330
37F
102
}
330
37F
100
TcOptionalData
 70
     2
 70
    16
  1
Arial
 70
     2
  0
TCOPTIONALDATA
  5
383
102
{ACAD_REACTORS
330
382
102
}
330
382
100
TcOptionalData
 70
     2
 70
    16
  1
Arial
 70
     2
  0
TCOPTIONALDATA
  5
3A1
102
{ACAD_REACTORS
330
3A0
102
}
330
3A0
100
TcOptionalData
 70
     2
 70
    32
 40
3.0
  0
TCOPTIONALDATA
  5
3A4
102
{ACAD_REACTORS
330
3A3
102
}
330
3A3
100
TcOptionalData
 70
     2
 70
    32
 40
3.0
  0
TCOPTIONALDATA
  5
3A7
102
{ACAD_REACTORS
330
3A6
102
}
330
3A6
100
TcOptionalData
 70
     2
 70
    32
 40
3.0
  0
TCOPTIONALDATA
  5
3AA
102
{ACAD_REACTORS
330
3A9
102
}
330
3A9
100
TcOptionalData
 70
     2
 70
    32
 40
3.0
  0
TCOPTIONALDATA
  5
3AD
102
{ACAD_REACTORS
330
3AC
102
}
330
3AC
100
TcOptionalData
 70
     2
 70
    32
 40
3.0
  0
TCOPTIONALDATA
  5
3B0
102
{ACAD_REACTORS
330
3AF
102
}
330
3AF
100
TcOptionalData
 70
     2
 70
    32
 40
3.0
  0
TCOPTIONALDATA
  5
3B3
102
{ACAD_REACTORS
330
3B2
102
}
330
3B2
100
TcOptionalData
 70
     2
 70
    32
 40
3.0
  0
TCOPTIONALDATA
  5
3B6
102
{ACAD_REACTORS
330
3B5
102
}
330
3B5
100
TcOptionalData
 70
     2
 70
    32
 40
3.0
  0
TCOPTIONALDATA
  5
3B9
102
{ACAD_REACTORS
330
3B8
102
}
330
3B8
100
TcOptionalData
 70
     2
 70
    32
 40
3.0
  0
TCOPTIONALDATA
  5
3BC
102
{ACAD_REACTORS
330
3BB
102
}
330
3BB
100
TcOptionalData
 70
     2
 70
    32
 40
3.0
  0
TCOPTIONALDATA
  5
3BF
102
{ACAD_REACTORS
330
3BE
102
}
330
3BE
100
TcOptionalData
 70
     2
 70
    32
 40
3.0
  0
TCOPTIONALDATA
  5
3C2
102
{ACAD_REACTORS
330
3C1
102
}
330
3C1
100
TcOptionalData
 70
     2
 70
    32
 40
3.0
  0
TCOPTIONALDATA
  5
3C5
102
{ACAD_REACTORS
330
3C4
102
}
330
3C4
100
TcOptionalData
 70
     2
 70
    32
 40
3.0
  0
TCOPTIONALDATA
  5
3C8
102
{ACAD_REACTORS
330
3C7
102
}
330
3C7
100
TcOptionalData
 70
     2
 70
    32
 40
3.0
  0
TCOPTIONALDATA
  5
3CB
102
{ACAD_REACTORS
330
3CA
102
}
330
3CA
100
TcOptionalData
 70
     2
 70
    32
 40
3.0
  0
TCOPTIONALDATA
  5
3CE
102
{ACAD_REACTORS
330
3CD
102
}
330
3CD
100
TcOptionalData
 70
     2
 70
    32
 40
3.0
  0
TCOPTIONALDATA
  5
3D1
102
{ACAD_REACTORS
330
3D0
102
}
330
3D0
100
TcOptionalData
 70
     2
 70
    32
 40
3.0
  0
TCOPTIONALDATA
  5
3D4
102
{ACAD_REACTORS
330
3D3
102
}
330
3D3
100
TcOptionalData
 70
     2
 70
    32
 40
3.0
  0
TCOPTIONALDATA
  5
3D7
102
{ACAD_REACTORS
330
3D6
102
}
330
3D6
100
TcOptionalData
 70
     2
 70
    32
 40
3.0
  0
TCOPTIONALDATA
  5
3DA
102
{ACAD_REACTORS
330
3D9
102
}
330
3D9
100
TcOptionalData
 70
     2
 70
    32
 40
3.0
  0
TCOPTIONALDATA
  5
3DD
102
{ACAD_REACTORS
330
3DC
102
}
330
3DC
100
TcOptionalData
 70
     2
 70
    32
 40
3.0
  0
TCOPTIONALDATA
  5
3E0
102
{ACAD_REACTORS
330
3DF
102
}
330
3DF
100
TcOptionalData
 70
     2
 70
    32
 40
3.0
  0
TCOPTIONALDATA
  5
3E3
102
{ACAD_REACTORS
330
3E2
102
}
330
3E2
100
TcOptionalData
 70
     2
 70
    32
 40
3.0
  0
TCOPTIONALDATA
  5
3E6
102
{ACAD_REACTORS
330
3E5
102
}
330
3E5
100
TcOptionalData
 70
     2
 70
    32
 40
3.0
  0
TCOPTIONALDATA
  5
3E9
102
{ACAD_REACTORS
330
3E8
102
}
330
3E8
100
TcOptionalData
 70
     2
 70
    32
 40
3.0
  0
TCOPTIONALDATA
  5
3EC
102
{ACAD_REACTORS
330
3EB
102
}
330
3EB
100
TcOptionalData
 70
     2
 70
    32
 40
3.0
  0
TCOPTIONALDATA
  5
3EF
102
{ACAD_REACTORS
330
3EE
102
}
330
3EE
100
TcOptionalData
 70
     2
 70
    32
 40
3.0
  0
TCOPTIONALDATA
  5
3F2
102
{ACAD_REACTORS
330
3F1
102
}
330
3F1
100
TcOptionalData
 70
     2
 70
    32
 40
3.0
  0
TCOPTIONALDATA
  5
3F5
102
{ACAD_REACTORS
330
3F4
102
}
330
3F4
100
TcOptionalData
 70
     2
 70
    32
 40
3.0
  0
TCOPTIONALDATA
  5
3F8
102
{ACAD_REACTORS
330
3F7
102
}
330
3F7
100
TcOptionalData
 70
     2
 70
    32
 40
3.0
  0
TCOPTIONALDATA
  5
3FB
102
{ACAD_REACTORS
330
3FA
102
}
330
3FA
100
TcOptionalData
 70
     2
 70
    32
 40
3.0
  0
TCOPTIONALDATA
  5
3FE
102
{ACAD_REACTORS
330
3FD
102
}
330
3FD
100
TcOptionalData
 70
     2
 70
    32
 40
3.0
  0
TCOPTIONALDATA
  5
401
102
{ACAD_REACTORS
330
400
102
}
330
400
100
TcOptionalData
 70
     2
 70
    32
 40
3.0
  0
TCOPTIONALDATA
  5
404
102
{ACAD_REACTORS
330
403
102
}
330
403
100
TcOptionalData
 70
     2
 70
    32
 40
3.0
  0
TCOPTIONALDATA
  5
407
102
{ACAD_REACTORS
330
406
102
}
330
406
100
TcOptionalData
 70
     2
 70
    32
 40
3.0
  0
TCOPTIONALDATA
  5
40A
102
{ACAD_REACTORS
330
409
102
}
330
409
100
TcOptionalData
 70
     2
 70
    32
 40
3.0
  0
TCOPTIONALDATA
  5
40D
102
{ACAD_REACTORS
330
40C
102
}
330
40C
100
TcOptionalData
 70
     2
 70
    32
 40
3.0
  0
TCOPTIONALDATA
  5
410
102
{ACAD_REACTORS
330
40F
102
}
330
40F
100
TcOptionalData
 70
     2
 70
    32
 40
3.0
  0
TCOPTIONALDATA
  5
413
102
{ACAD_REACTORS
330
412
102
}
330
412
100
TcOptionalData
 70
     2
 70
    32
 40
3.0
  0
TCOPTIONALDATA
  5
416
102
{ACAD_REACTORS
330
415
102
}
330
415
100
TcOptionalData
 70
     2
 70
    32
 40
3.0
  0
TCOPTIONALDATA
  5
419
102
{ACAD_REACTORS
330
418
102
}
330
418
100
TcOptionalData
 70
     2
 70
    32
 40
3.0
  0
TCOPTIONALDATA
  5
41C
102
{ACAD_REACTORS
330
41B
102
}
330
41B
100
TcOptionalData
 70
     2
 70
    32
 40
3.0
  0
TCOPTIONALDATA
  5
41F
102
{ACAD_REACTORS
330
41E
102
}
330
41E
100
TcOptionalData
 70
     2
 70
    32
 40
3.0
  0
TCOPTIONALDATA
  5
427
102
{ACAD_REACTORS
330
426
102
}
330
426
100
TcOptionalData
 70
     2
 70
    32
 40
3.0
  0
TCOPTIONALDATA
  5
439
102
{ACAD_REACTORS
330
438
102
}
330
438
100
TcOptionalData
 70
     2
 70
    32
 40
3.0
  0
TCOPTIONALDATA
  5
448
102
{ACAD_REACTORS
330
447
102
}
330
447
100
TcOptionalData
 70
     2
 70
    32
 40
3.0
  0
TCOPTIONALDATA
  5
458
102
{ACAD_REACTORS
330
457
102
}
330
457
100
TcOptionalData
 70
     2
 70
     2
 10
1.934597042354715
 20
20.20679251644642
 30
0.0
  0
TCOPTIONALDATA
  5
45C
102
{ACAD_REACTORS
330
45B
102
}
330
45B
100
TcOptionalData
 70
     2
 70
     2
 10
2.304863038885951
 20
17.65405326450979
 30
0.0
  0
TCOPTIONALDATA
  5
460
102
{ACAD_REACTORS
330
45F
102
}
330
45F
100
TcOptionalData
 70
     2
 70
     2
 10
2.205839640664674
 20
23.88317694545756
 30
0.0
  0
TCOPTIONALDATA
  5
464
102
{ACAD_REACTORS
330
463
102
}
330
463
100
TcOptionalData
 70
     2
 70
     2
 10
0.5976737862169166
 20
16.31554310403406
 30
0.0
  0
TCOPTIONALDATA
  5
467
102
{ACAD_REACTORS
330
466
102
}
330
466
100
TcOptionalData
 70
     2
 70
     2
 10
-20.01601633743138
 20
24.04857224835033
 30
0.0
  0
TCOPTIONALDATA
  5
46A
102
{ACAD_REACTORS
330
469
102
}
330
469
100
TcOptionalData
 70
     2
 70
     2
 10
-19.92725075502979
 20
0.399153533034223
 30
0.0
  0
TCOPTIONALDATA
  5
46D
102
{ACAD_REACTORS
330
46C
102
}
330
46C
100
TcOptionalData
 70
     2
 70
     2
 10
-14.10699168287159
 20
21.16389939145257
 30
0.0
  0
TCOPTIONALDATA
  5
472
102
{ACAD_REACTORS
330
471
102
}
330
471
100
TcOptionalData
 70
     2
 70
    32
 40
3.0
  0
TCOPTIONALDATA
  5
475
102
{ACAD_REACTORS
330
474
102
}
330
474
100
TcOptionalData
 70
     2
 70
     2
 10
0.8953295225993188
 20
15.01027277612462
 30
0.0
  0
LAYOUT
  5
152
102
{ACAD_REACTORS
330
1A
102
}
330
1A
100
AcDbPlotSettings
  1

  2
TCAD_Plot
  4
65.18 x 40.42 Inches
  6

 40
0.0
 41
0.0
 42
0.0
 43
0.0
 44
1655.555573798796
 45
1026.781974493726
 46
0.0
 47
0.0
 48
0.0
 49
0.0
140
0.0
141
0.0
142
1.0
143
1.0
 70
   672
 72
     0
 73
     0
 74
     5
  7

 75
    16
 76
     0
 77
     2
 78
   300
147
1.0
148
0.0
149
0.0
100
AcDbLayout
  1
_Paper_Space
 70
     1
 71
     1
 10
0.0
 20
0.0
 11
0.0
 21
0.0
 12
0.0
 22
0.0
 32
0.0
 14
0.0
 24
0.0
 34
0.0
 15
0.0
 25
0.0
 35
0.0
146
0.0
 13
0.0
 23
0.0
 33
0.0
 16
1.0
 26
0.0
 36
0.0
 17
0.0
 27
1.0
 37
0.0
 76
     0
330
151
331
476
  0
LAYOUT
  5
1E
102
{ACAD_REACTORS
330
1A
102
}
330
1A
100
AcDbPlotSettings
  1

  2
TCAD_Plot
  4
65.18 x 40.42 Inches
  6

 40
0.0
 41
0.0
 42
0.0
 43
0.0
 44
1655.555573798796
 45
1026.781974493726
 46
0.0
 47
0.0
 48
0.0
 49
0.0
140
0.0
141
0.0
142
1.0
143
1.0
 70
   672
 72
     0
 73
     0
 74
     5
  7

 75
    16
 76
     0
 77
     2
 78
   300
147
1.0
148
0.0
149
0.0
100
AcDbLayout
  1
_Paper_Space0
 70
     1
 71
     2
 10
0.0
 20
0.0
 11
0.0
 21
0.0
 12
0.0
 22
0.0
 32
0.0
 14
0.0
 24
0.0
 34
0.0
 15
0.0
 25
0.0
 35
0.0
146
0.0
 13
0.0
 23
0.0
 33
0.0
 16
1.0
 26
0.0
 36
0.0
 17
0.0
 27
1.0
 37
0.0
 76
     0
330
1B
331
477
  0
LAYOUT
  5
22
102
{ACAD_REACTORS
330
1A
102
}
330
1A
100
AcDbPlotSettings
  1

  2
TCAD_Plot
  4
65.18 x 40.42 Inches
  6

 40
0.0
 41
0.0
 42
0.0
 43
0.0
 44
1655.555573798796
 45
1026.781974493726
 46
0.0
 47
0.0
 48
-32.58967664958259
 49
-20.21224359239618
140
32.58967664958259
141
20.21224359239618
142
1.0
143
1.0
 70
  1696
 72
     0
 73
     0
 74
     4
  7

 75
     0
 76
     0
 77
     2
 78
   300
147
3.028475407584265
148
827.7777868993978
149
513.3909872468629
100
AcDbLayout
  1
Model
 70
     1
 71
     0
 10
-51.80890296874264
 20
-8.23990317625226
 11
13.37045033042254
 21
32.18458400854009
 12
0.0
 22
0.0
 32
0.0
 14
-28.97032373930529
 24
-3.585529189505127
 34
0.0
 15
13.02967626069471
 25
26.42094928253197
 35
0.0
146
0.0
 13
0.0
 23
0.0
 33
0.0
 16
1.0
 26
0.0
 36
0.0
 17
0.0
 27
1.0
 37
0.0
 76
     0
330
1F
331
29
  0
MATERIAL
  5
3D
102
{ACAD_REACTORS
330
3B
102
}
330
3B
100
AcDbMaterial
  1
ByBlock
 72
     1
 94
      127
  0
MATERIAL
  5
3C
102
{ACAD_REACTORS
330
3B
102
}
330
3B
100
AcDbMaterial
  1
ByLayer
 72
     1
 94
      127
  0
MATERIAL
  5
3E
102
{ACAD_REACTORS
330
3B
102
}
330
3B
100
AcDbMaterial
  1
Global
 72
     1
 94
      127
  0
MLEADERSTYLE
  5
193
102
{ACAD_REACTORS
330
192
102
}
330
192
100
AcDbMLeaderStyle
179
     2
170
     2
171
     1
172
     0
 90
        2
 40
0.0
 41
0.0
173
     1
 91
-1056964608
340
14
 92
       -2
290
     1
 42
0.25
291
     1
 43
0.25
  3

341
0
 44
0.25
300

342
11
174
     1
178
     1
175
     1
176
     0
 93
-1056964608
 45
0.1523076923076923
292
     0
297
     0
 46
0.18
343
0
 94
-1056964608
 47
1.0
 49
1.0
140
1.0
293
     1
141
0.0
294
     1
177
     0
142
1.0
295
     0
296
     0
143
0.125
271
     0
272
     9
273
     9
1001
ACAD_MLEADERVER
1070
     2
  0
MLINESTYLE
  5
18
102
{ACAD_REACTORS
330
17
102
}
330
17
100
AcDbMlineStyle
  2
Standard
 70
     0
  3

 62
     0
 51
90.0
 52
90.0
 71
     2
 49
0.5
 62
   256
  6
BYLAYER
 49
-0.5
 62
   256
  6
BYLAYER
  0
ACDBPLACEHOLDER
  5
F
102
{ACAD_REACTORS
330
E
102
}
330
E
  0
SCALE
  5
47A
102
{ACAD_REACTORS
330
479
102
}
330
479
100
AcDbScale
 70
     0
300
1:1
140
1.0
141
1.0
290
     1
  0
SCALE
  5
47B
102
{ACAD_REACTORS
330
479
102
}
330
479
100
AcDbScale
 70
     0
300
1:2
140
1.0
141
2.0
290
     0
  0
SCALE
  5
47C
102
{ACAD_REACTORS
330
479
102
}
330
479
100
AcDbScale
 70
     0
300
1:4
140
1.0
141
4.0
290
     0
  0
SCALE
  5
47D
102
{ACAD_REACTORS
330
479
102
}
330
479
100
AcDbScale
 70
     0
300
1:5
140
1.0
141
5.0
290
     0
  0
SCALE
  5
47E
102
{ACAD_REACTORS
330
479
102
}
330
479
100
AcDbScale
 70
     0
300
1:8
140
1.0
141
8.0
290
     0
  0
SCALE
  5
47F
102
{ACAD_REACTORS
330
479
102
}
330
479
100
AcDbScale
 70
     0
300
1:10
140
1.0
141
10.0
290
     0
  0
SCALE
  5
480
102
{ACAD_REACTORS
330
479
102
}
330
479
100
AcDbScale
 70
     0
300
1:16
140
1.0
141
16.0
290
     0
  0
SCALE
  5
481
102
{ACAD_REACTORS
330
479
102
}
330
479
100
AcDbScale
 70
     0
300
1:20
140
1.0
141
20.0
290
     0
  0
SCALE
  5
482
102
{ACAD_REACTORS
330
479
102
}
330
479
100
AcDbScale
 70
     0
300
1:30
140
1.0
141
30.0
290
     0
  0
SCALE
  5
483
102
{ACAD_REACTORS
330
479
102
}
330
479
100
AcDbScale
 70
     0
300
1:40
140
1.0
141
40.0
290
     0
  0
SCALE
  5
484
102
{ACAD_REACTORS
330
479
102
}
330
479
100
AcDbScale
 70
     0
300
1:50
140
1.0
141
50.0
290
     0
  0
SCALE
  5
485
102
{ACAD_REACTORS
330
479
102
}
330
479
100
AcDbScale
 70
     0
300
1:100
140
1.0
141
100.0
290
     0
  0
SCALE
  5
486
102
{ACAD_REACTORS
330
479
102
}
330
479
100
AcDbScale
 70
     0
300
2:1
140
2.0
141
1.0
290
     0
  0
SCALE
  5
487
102
{ACAD_REACTORS
330
479
102
}
330
479
100
AcDbScale
 70
     0
300
4:1
140
4.0
141
1.0
290
     0
  0
SCALE
  5
488
102
{ACAD_REACTORS
330
479
102
}
330
479
100
AcDbScale
 70
     0
300
8:1
140
8.0
141
1.0
290
     0
  0
SCALE
  5
489
102
{ACAD_REACTORS
330
479
102
}
330
479
100
AcDbScale
 70
     0
300
10:1
140
10.0
141
1.0
290
     0
  0
SCALE
  5
48A
102
{ACAD_REACTORS
330
479
102
}
330
479
100
AcDbScale
 70
     0
300
100:1
140
100.0
141
1.0
290
     0
  0
SCALE
  5
48B
102
{ACAD_REACTORS
330
479
102
}
330
479
100
AcDbScale
 70
     0
300
1/128" = 1'-0"
140
0.0078125
141
12.0
290
     0
  0
SCALE
  5
48C
102
{ACAD_REACTORS
330
479
102
}
330
479
100
AcDbScale
 70
     0
300
1/64" = 1'-0"
140
0.015625
141
12.0
290
     0
  0
SCALE
  5
48D
102
{ACAD_REACTORS
330
479
102
}
330
479
100
AcDbScale
 70
     0
300
1/32" = 1'-0"
140
0.03125
141
12.0
290
     0
  0
SCALE
  5
48E
102
{ACAD_REACTORS
330
479
102
}
330
479
100
AcDbScale
 70
     0
300
1/16" = 1'-0"
140
0.0625
141
12.0
290
     0
  0
SCALE
  5
48F
102
{ACAD_REACTORS
330
479
102
}
330
479
100
AcDbScale
 70
     0
300
3/32" = 1'-0"
140
0.09375
141
12.0
290
     0
  0
SCALE
  5
490
102
{ACAD_REACTORS
330
479
102
}
330
479
100
AcDbScale
 70
     0
300
1/8" = 1'-0"
140
0.125
141
12.0
290
     0
  0
SCALE
  5
491
102
{ACAD_REACTORS
330
479
102
}
330
479
100
AcDbScale
 70
     0
300
3/16" = 1'-0"
140
0.1875
141
12.0
290
     0
  0
SCALE
  5
492
102
{ACAD_REACTORS
330
479
102
}
330
479
100
AcDbScale
 70
     0
300
1/4" = 1'-0"
140
0.25
141
12.0
290
     0
  0
SCALE
  5
493
102
{ACAD_REACTORS
330
479
102
}
330
479
100
AcDbScale
 70
     0
300
3/8" = 1'-0"
140
0.375
141
12.0
290
     0
  0
SCALE
  5
494
102
{ACAD_REACTORS
330
479
102
}
330
479
100
AcDbScale
 70
     0
300
1/2" = 1'-0"
140
0.5
141
12.0
290
     0
  0
SCALE
  5
495
102
{ACAD_REACTORS
330
479
102
}
330
479
100
AcDbScale
 70
     0
300
3/4" = 1'-0"
140
0.75
141
12.0
290
     0
  0
SCALE
  5
496
102
{ACAD_REACTORS
330
479
102
}
330
479
100
AcDbScale
 70
     0
300
1" = 1'-0"
140
1.0
141
12.0
290
     0
  0
SCALE
  5
497
102
{ACAD_REACTORS
330
479
102
}
330
479
100
AcDbScale
 70
     0
300
1-1/2" = 1'-0"
140
1.5
141
12.0
290
     0
  0
SCALE
  5
498
102
{ACAD_REACTORS
330
479
102
}
330
479
100
AcDbScale
 70
     0
300
3" = 1'-0"
140
3.0
141
12.0
290
     0
  0
SCALE
  5
499
102
{ACAD_REACTORS
330
479
102
}
330
479
100
AcDbScale
 70
     0
300
6" = 1'-0"
140
6.0
141
12.0
290
     0
  0
SCALE
  5
49A
102
{ACAD_REACTORS
330
479
102
}
330
479
100
AcDbScale
 70
     0
300
1'-0" = 1'-0"
140
12.0
141
12.0
290
     0
  0
TABLESTYLE
  5
1A2
102
{ACAD_REACTORS
330
1A1
102
}
102
{ACAD_XDICTIONARY
360
49D
102
}
330
1A1
100
AcDbTableStyle
  3

 70
     0
 71
     0
 40
0.06
 41
0.06
280
     0
281
     0
  7
Standard
140
0.2000000178813934
170
     5
 62
     0
 63
   257
283
     0
 90
        4
 91
        0
  1

274
    -2
284
     1
 64
     0
275
    -2
285
     1
 65
     0
276
    -2
286
     1
 66
     0
277
    -2
287
     1
 67
     0
278
    -2
288
     1
 68
     0
279
    -2
289
     1
 69
     0
  7
Standard
140
0.2000000178813934
170
     5
 62
     0
 63
   257
283
     0
 90
        4
 91
        0
  1

274
    -2
284
     1
 64
     0
275
    -2
285
     1
 65
     0
276
    -2
286
     1
 66
     0
277
    -2
287
     1
 67
     0
278
    -2
288
     1
 68
     0
279
    -2
289
     1
 69
     0
  7
Standard
140
0.2000000178813934
170
     5
 62
     0
 63
   257
283
     0
 90
        4
 91
        0
  1

274
    -2
284
     1
 64
     0
275
    -2
285
     1
 65
     0
276
    -2
286
     1
 66
     0
277
    -2
287
     1
 67
     0
278
    -2
288
     1
 68
     0
279
    -2
289
     1
 69
     0
  0
VISUALSTYLE
  5
2F
102
{ACAD_REACTORS
330
2A
102
}
330
2A
100
AcDbVisualStyle
  2
2dWireframe
 70
     4
177
     2
291
     0
 71
     0
176
     1
 72
     2
176
     1
 73
     0
176
     1
 90
        0
176
     1
 40
-0.6
176
     1
 41
-30.0
176
     1
 62
     5
 63
     7
421
 16777215
176
     1
 74
     1
176
     1
 91
        4
176
     1
 64
     7
176
     1
 65
   257
176
     1
 75
     1
176
     1
175
     1
176
     1
 42
1.0
176
     1
 92
        0
176
     1
 66
   257
176
     1
 43
1.0
176
     1
 76
     1
176
     1
 77
     6
176
     1
 78
     2
176
     1
 67
     7
176
     1
 79
     5
176
     1
170
     0
176
     1
171
     0
176
     1
290
     0
176
     1
 93
        1
176
     1
 44
0.0
176
     1
173
     0
176
     1
  0
VISUALSTYLE
  5
31
102
{ACAD_REACTORS
330
2A
102
}
330
2A
100
AcDbVisualStyle
  2
3D Hidden
 70
     6
177
     2
291
     0
 71
     1
176
     1
 72
     2
176
     1
 73
     2
176
     1
 90
        0
176
     1
 40
-0.6
176
     1
 41
-30.0
176
     1
 62
     5
 63
     7
421
 16777215
176
     1
 74
     2
176
     1
 91
        2
176
     1
 64
     7
176
     1
 65
   257
176
     1
 75
     2
176
     1
175
     1
176
     1
 42
40.0
176
     1
 92
        0
176
     1
 66
   257
176
     1
 43
1.0
176
     1
 76
     1
176
     1
 77
     6
176
     1
 78
     2
176
     1
 67
     7
176
     1
 79
     3
176
     1
170
     0
176
     1
171
     0
176
     1
290
     0
176
     1
 93
        1
176
     1
 44
0.0
176
     1
173
     0
176
     1
  0
VISUALSTYLE
  5
30
102
{ACAD_REACTORS
330
2A
102
}
330
2A
100
AcDbVisualStyle
  2
3dWireframe
 70
     5
177
     2
291
     0
 71
     0
176
     1
 72
     2
176
     1
 73
     0
176
     1
 90
        0
176
     1
 40
-0.6
176
     1
 41
-30.0
176
     1
 62
     5
 63
     7
421
 16777215
176
     1
 74
     1
176
     1
 91
        4
176
     1
 64
     7
176
     1
 65
   257
176
     1
 75
     1
176
     1
175
     1
176
     1
 42
1.0
176
     1
 92
        0
176
     1
 66
   257
176
     1
 43
1.0
176
     1
 76
     1
176
     1
 77
     6
176
     1
 78
     2
176
     1
 67
     7
176
     1
 79
     5
176
     1
170
     0
176
     1
171
     0
176
     1
290
     0
176
     1
 93
        1
176
     1
 44
0.0
176
     1
173
     0
176
     1
  0
VISUALSTYLE
  5
32
102
{ACAD_REACTORS
330
2A
102
}
330
2A
100
AcDbVisualStyle
  2
Basic
 70
     7
177
     2
291
     1
 71
     1
176
     1
 72
     0
176
     1
 73
     1
176
     1
 90
        0
176
     1
 40
-0.6
176
     1
 41
-30.0
176
     1
 62
     5
 63
     7
421
 16777215
176
     1
 74
     0
176
     1
 91
        4
176
     1
 64
     7
176
     1
 65
   257
176
     1
 75
     1
176
     1
175
     1
176
     1
 42
1.0
176
     1
 92
        8
176
     1
 66
     7
176
     1
 43
1.0
176
     1
 76
     1
176
     1
 77
     6
176
     1
 78
     2
176
     1
 67
     7
176
     1
 79
     5
176
     1
170
     0
176
     1
171
     0
176
     1
290
     0
176
     1
 93
        1
176
     1
 44
0.0
176
     1
173
     0
176
     1
  0
VISUALSTYLE
  5
36
102
{ACAD_REACTORS
330
2A
102
}
330
2A
100
AcDbVisualStyle
  2
Brighten
 70
    12
177
     2
291
     1
 71
     2
176
     1
 72
     2
176
     1
 73
     0
176
     1
 90
        0
176
     1
 40
-0.6
176
     1
 41
-30.0
176
     1
 62
     5
 63
     7
421
 16777215
176
     1
 74
     1
176
     1
 91
        4
176
     1
 64
     7
176
     1
 65
   257
176
     1
 75
     1
176
     1
175
     1
176
     1
 42
1.0
176
     1
 92
        8
176
     1
 66
     7
176
     1
 43
1.0
176
     1
 76
     1
176
     1
 77
     6
176
     1
 78
     2
176
     1
 67
     7
176
     1
 79
     5
176
     1
170
     0
176
     1
171
     0
176
     1
290
     0
176
     1
 93
        1
176
     1
 44
50.0
176
     1
173
     0
176
     1
  0
VISUALSTYLE
  5
3A
102
{ACAD_REACTORS
330
2A
102
}
330
2A
100
AcDbVisualStyle
  2
ColorChange
 70
    16
177
     2
291
     1
 71
     2
176
     1
 72
     2
176
     1
 73
     3
176
     1
 90
        0
176
     1
 40
-0.6
176
     1
 41
-30.0
176
     1
 62
     5
 63
     8
421
  8421504
176
     1
 74
     1
176
     1
 91
        4
176
     1
 64
     7
176
     1
 65
   257
176
     1
 75
     1
176
     1
175
     1
176
     1
 42
1.0
176
     1
 92
        8
176
     1
 66
     8
424
  8421504
176
     1
 43
1.0
176
     1
 76
     1
176
     1
 77
     6
176
     1
 78
     2
176
     1
 67
     7
176
     1
 79
     5
176
     1
170
     0
176
     1
171
     0
176
     1
290
     0
176
     1
 93
        1
176
     1
 44
0.0
176
     1
173
     0
176
     1
  0
VISUALSTYLE
  5
34
102
{ACAD_REACTORS
330
2A
102
}
330
2A
100
AcDbVisualStyle
  2
Conceptual
 70
     9
177
     2
291
     0
 71
     3
176
     1
 72
     2
176
     1
 73
     0
176
     1
 90
        0
176
     1
 40
-0.6
176
     1
 41
-30.0
176
     1
 62
     5
 63
     7
421
 16777215
176
     1
 74
     2
176
     1
 91
        2
176
     1
 64
     7
176
     1
 65
   257
176
     1
 75
     1
176
     1
175
     1
176
     1
 42
40.0
176
     1
 92
        8
176
     1
 66
     7
176
     1
 43
1.0
176
     1
 76
     1
176
     1
 77
     6
176
     1
 78
     2
176
     1
 67
     7
176
     1
 79
     3
176
     1
170
     0
176
     1
171
     0
176
     1
290
     0
176
     1
 93
        1
176
     1
 44
0.0
176
     1
173
     0
176
     1
  0
VISUALSTYLE
  5
35
102
{ACAD_REACTORS
330
2A
102
}
330
2A
100
AcDbVisualStyle
  2
Dim
 70
    11
177
     2
291
     1
 71
     2
176
     1
 72
     2
176
     1
 73
     0
176
     1
 90
        0
176
     1
 40
-0.6
176
     1
 41
-30.0
176
     1
 62
     5
 63
     7
421
 16777215
176
     1
 74
     1
176
     1
 91
        4
176
     1
 64
     7
176
     1
 65
   257
176
     1
 75
     1
176
     1
175
     1
176
     1
 42
1.0
176
     1
 92
        8
176
     1
 66
     7
176
     1
 43
1.0
176
     1
 76
     1
176
     1
 77
     6
176
     1
 78
     2
176
     1
 67
     7
176
     1
 79
     5
176
     1
170
     0
176
     1
171
     0
176
     1
290
     0
176
     1
 93
        1
176
     1
 44
-50.0
176
     1
173
     0
176
     1
  0
VISUALSTYLE
  5
39
102
{ACAD_REACTORS
330
2A
102
}
330
2A
100
AcDbVisualStyle
  2
Facepattern
 70
    15
177
     2
291
     1
 71
     2
176
     1
 72
     2
176
     1
 73
     0
176
     1
 90
        0
176
     1
 40
-0.6
176
     1
 41
-30.0
176
     1
 62
     5
 63
     7
421
 16777215
176
     1
 74
     1
176
     1
 91
        4
176
     1
 64
     7
176
     1
 65
   257
176
     1
 75
     1
176
     1
175
     1
176
     1
 42
1.0
176
     1
 92
        8
176
     1
 66
     7
176
     1
 43
1.0
176
     1
 76
     1
176
     1
 77
     6
176
     1
 78
     2
176
     1
 67
     7
176
     1
 79
     5
176
     1
170
     0
176
     1
171
     0
176
     1
290
     0
176
     1
 93
        1
176
     1
 44
0.0
176
     1
173
     0
176
     1
  0
VISUALSTYLE
  5
2B
102
{ACAD_REACTORS
330
2A
102
}
330
2A
100
AcDbVisualStyle
  2
Flat
 70
     0
177
     2
291
     1
 71
     2
176
     1
 72
     1
176
     1
 73
     1
176
     1
 90
        2
176
     1
 40
-0.6
176
     1
 41
30.0
176
     1
 62
     5
 63
     7
421
 16777215
176
     1
 74
     0
176
     1
 91
        4
176
     1
 64
     7
176
     1
 65
   257
176
     1
 75
     1
176
     1
175
     1
176
     1
 42
1.0
176
     1
 92
        8
176
     1
 66
     7
176
     1
 43
1.0
176
     1
 76
     1
176
     1
 77
     6
176
     1
 78
     2
176
     1
 67
     7
176
     1
 79
     5
176
     1
170
     0
176
     1
171
     0
176
     1
290
     0
176
     1
 93
       13
176
     1
 44
0.0
176
     1
173
     0
176
     1
  0
VISUALSTYLE
  5
2C
102
{ACAD_REACTORS
330
2A
102
}
330
2A
100
AcDbVisualStyle
  2
FlatWithEdges
 70
     1
177
     2
291
     1
 71
     2
176
     1
 72
     1
176
     1
 73
     1
176
     1
 90
        2
176
     1
 40
-0.6
176
     1
 41
30.0
176
     1
 62
     5
 63
     7
421
 16777215
176
     1
 74
     1
176
     1
 91
        4
176
     1
 64
     7
176
     1
 65
   257
176
     1
 75
     1
176
     1
175
     1
176
     1
 42
1.0
176
     1
 92
        0
176
     1
 66
   257
176
     1
 43
1.0
176
     1
 76
     1
176
     1
 77
     6
176
     1
 78
     2
176
     1
 67
     7
176
     1
 79
     5
176
     1
170
     0
176
     1
171
     0
176
     1
290
     0
176
     1
 93
       13
176
     1
 44
0.0
176
     1
173
     0
176
     1
  0
VISUALSTYLE
  5
2D
102
{ACAD_REACTORS
330
2A
102
}
330
2A
100
AcDbVisualStyle
  2
Gouraud
 70
     2
177
     2
291
     1
 71
     2
176
     1
 72
     2
176
     1
 73
     1
176
     1
 90
        2
176
     1
 40
-0.6
176
     1
 41
30.0
176
     1
 62
     5
 63
     7
421
 16777215
176
     1
 74
     0
176
     1
 91
        4
176
     1
 64
     7
176
     1
 65
   257
176
     1
 75
     1
176
     1
175
     1
176
     1
 42
1.0
176
     1
 92
        0
176
     1
 66
     7
176
     1
 43
1.0
176
     1
 76
     1
176
     1
 77
     6
176
     1
 78
     2
176
     1
 67
     7
176
     1
 79
     5
176
     1
170
     0
176
     1
171
     0
176
     1
290
     0
176
     1
 93
       13
176
     1
 44
0.0
176
     1
173
     0
176
     1
  0
VISUALSTYLE
  5
2E
102
{ACAD_REACTORS
330
2A
102
}
330
2A
100
AcDbVisualStyle
  2
GouraudWithEdges
 70
     3
177
     2
291
     1
 71
     2
176
     1
 72
     2
176
     1
 73
     1
176
     1
 90
        2
176
     1
 40
-0.6
176
     1
 41
30.0
176
     1
 62
     5
 63
     7
421
 16777215
176
     1
 74
     1
176
     1
 91
        4
176
     1
 64
     7
176
     1
 65
   257
176
     1
 75
     1
176
     1
175
     1
176
     1
 42
1.0
176
     1
 92
        0
176
     1
 66
   257
176
     1
 43
1.0
176
     1
 76
     1
176
     1
 77
     6
176
     1
 78
     2
176
     1
 67
     7
176
     1
 79
     5
176
     1
170
     0
176
     1
171
     0
176
     1
290
     0
176
     1
 93
       13
176
     1
 44
0.0
176
     1
173
     0
176
     1
  0
VISUALSTYLE
  5
38
102
{ACAD_REACTORS
330
2A
102
}
330
2A
100
AcDbVisualStyle
  2
Linepattern
 70
    14
177
     2
291
     1
 71
     2
176
     1
 72
     2
176
     1
 73
     0
176
     1
 90
        0
176
     1
 40
-0.6
176
     1
 41
-30.0
176
     1
 62
     5
 63
     7
421
 16777215
176
     1
 74
     1
176
     1
 91
        4
176
     1
 64
     7
176
     1
 65
   257
176
     1
 75
     7
176
     1
175
     7
176
     1
 42
1.0
176
     1
 92
        8
176
     1
 66
     7
176
     1
 43
1.0
176
     1
 76
     1
176
     1
 77
     6
176
     1
 78
     2
176
     1
 67
     7
176
     1
 79
     5
176
     1
170
     0
176
     1
171
     0
176
     1
290
     0
176
     1
 93
        1
176
     1
 44
0.0
176
     1
173
     0
176
     1
  0
VISUALSTYLE
  5
33
102
{ACAD_REACTORS
330
2A
102
}
330
2A
100
AcDbVisualStyle
  2
Realistic
 70
     8
177
     2
291
     0
 71
     2
176
     1
 72
     2
176
     1
 73
     0
176
     1
 90
        0
176
     1
 40
-0.6
176
     1
 41
-30.0
176
     1
 62
     5
 63
     7
421
 16777215
176
     1
 74
     1
176
     1
 91
        0
176
     1
 64
     7
176
     1
 65
   257
176
     1
 75
     1
176
     1
175
     1
176
     1
 42
1.0
176
     1
 92
        8
176
     1
 66
     8
424
  7895160
176
     1
 43
1.0
176
     1
 76
     1
176
     1
 77
     6
176
     1
 78
     2
176
     1
 67
     7
176
     1
 79
     5
176
     1
170
     0
176
     1
171
     0
176
     1
290
     0
176
     1
 93
       13
176
     1
 44
0.0
176
     1
173
     0
176
     1
  0
VISUALSTYLE
  5
37
102
{ACAD_REACTORS
330
2A
102
}
330
2A
100
AcDbVisualStyle
  2
Thicken
 70
    13
177
     2
291
     1
 71
     2
176
     1
 72
     2
176
     1
 73
     0
176
     1
 90
        0
176
     1
 40
-0.6
176
     1
 41
-30.0
176
     1
 62
     5
 63
     7
421
 16777215
176
     1
 74
     1
176
     1
 91
        4
176
     1
 64
     7
176
     1
 65
   257
176
     1
 75
     1
176
     1
175
     1
176
     1
 42
1.0
176
     1
 92
       12
176
     1
 66
     7
176
     1
 43
1.0
176
     1
 76
     1
176
     1
 77
     6
176
     1
 78
     2
176
     1
 67
     7
176
     1
 79
     5
176
     1
170
     0
176
     1
171
     0
176
     1
290
     0
176
     1
 93
        1
176
     1
 44
0.0
176
     1
173
     0
176
     1
  0
DICTIONARYVAR
  5
49C
102
{ACAD_REACTORS
330
49B
102
}
330
49B
100
DictionaryVariables
280
     0
  1
1:1
  0
DICTIONARYVAR
  5
4A0
102
{ACAD_REACTORS
330
49B
102
}
330
49B
100
DictionaryVariables
280
     0
  1
0
  0
DICTIONARY
  5
49D
330
1A2
100
AcDbDictionary
280
     1
281
     1
  3
ACAD_ROUNDTRIP_2008_TABLESTYLE_CELLSTYLEMAP
360
49E
  0
CELLSTYLEMAP
  5
49E
102
{ACAD_REACTORS
330
49D
102
}
330
49D
100
AcDbCellStyleMap
 90
        3
300
CELLSTYLE
  1
TABLEFORMAT_BEGIN
 90
        5
170
     1
 91
        0
 92
        0
 62
   257
 93
        1
300
CONTENTFORMAT
  1
CONTENTFORMAT_BEGIN
 90
        0
 91
        0
 92
        4
 93
        0
300

 40
0.0
140
1.0
 94
        5
 62
     0
340
11
144
0.2000000178813934
309
CONTENTFORMAT_END
171
     0
 94
        6
 95
        1
302
GRIDFORMAT
  1
GRIDFORMAT_BEGIN
 90
        0
 91
        1
 62
     0
 92
       -2
340
0
 93
        0
 40
0.045
309
GRIDFORMAT_END
 95
        2
302
GRIDFORMAT
  1
GRIDFORMAT_BEGIN
 90
        0
 91
        1
 62
     0
 92
       -2
340
0
 93
        0
 40
0.045
309
GRIDFORMAT_END
 95
        4
302
GRIDFORMAT
  1
GRIDFORMAT_BEGIN
 90
        0
 91
        1
 62
     0
 92
       -2
340
0
 93
        0
 40
0.045
309
GRIDFORMAT_END
 95
        8
302
GRIDFORMAT
  1
GRIDFORMAT_BEGIN
 90
        0
 91
        1
 62
     0
 92
       -2
340
0
 93
        0
 40
0.045
309
GRIDFORMAT_END
 95
       16
302
GRIDFORMAT
  1
GRIDFORMAT_BEGIN
 90
        0
 91
        1
 62
     0
 92
       -2
340
0
 93
        0
 40
0.045
309
GRIDFORMAT_END
 95
       32
302
GRIDFORMAT
  1
GRIDFORMAT_BEGIN
 90
        0
 91
        1
 62
     0
 92
       -2
340
0
 93
        0
 40
0.045
309
GRIDFORMAT_END
309
TABLEFORMAT_END
  1
CELLSTYLE_BEGIN
 90
        1
 91
        1
300
_TITLE
309
CELLSTYLE_END
300
CELLSTYLE
  1
TABLEFORMAT_BEGIN
 90
        5
170
     1
 91
        0
 92
        0
 62
   257
 93
        1
300
CONTENTFORMAT
  1
CONTENTFORMAT_BEGIN
 90
        0
 91
        0
 92
        4
 93
        0
300

 40
0.0
140
1.0
 94
        5
 62
     0
340
11
144
0.2000000178813934
309
CONTENTFORMAT_END
171
     0
 94
        6
 95
        1
302
GRIDFORMAT
  1
GRIDFORMAT_BEGIN
 90
        0
 91
        1
 62
     0
 92
       -2
340
0
 93
        0
 40
0.045
309
GRIDFORMAT_END
 95
        2
302
GRIDFORMAT
  1
GRIDFORMAT_BEGIN
 90
        0
 91
        1
 62
     0
 92
       -2
340
0
 93
        0
 40
0.045
309
GRIDFORMAT_END
 95
        4
302
GRIDFORMAT
  1
GRIDFORMAT_BEGIN
 90
        0
 91
        1
 62
     0
 92
       -2
340
0
 93
        0
 40
0.045
309
GRIDFORMAT_END
 95
        8
302
GRIDFORMAT
  1
GRIDFORMAT_BEGIN
 90
        0
 91
        1
 62
     0
 92
       -2
340
0
 93
        0
 40
0.045
309
GRIDFORMAT_END
 95
       16
302
GRIDFORMAT
  1
GRIDFORMAT_BEGIN
 90
        0
 91
        1
 62
     0
 92
       -2
340
0
 93
        0
 40
0.045
309
GRIDFORMAT_END
 95
       32
302
GRIDFORMAT
  1
GRIDFORMAT_BEGIN
 90
        0
 91
        1
 62
     0
 92
       -2
340
0
 93
        0
 40
0.045
309
GRIDFORMAT_END
309
TABLEFORMAT_END
  1
CELLSTYLE_BEGIN
 90
        2
 91
        1
300
_HEADER
309
CELLSTYLE_END
300
CELLSTYLE
  1
TABLEFORMAT_BEGIN
 90
        5
170
     1
 91
        0
 92
        0
 62
   257
 93
        1
300
CONTENTFORMAT
  1
CONTENTFORMAT_BEGIN
 90
        0
 91
        0
 92
        4
 93
        0
300

 40
0.0
140
1.0
 94
        5
 62
     0
340
11
144
0.2000000178813934
309
CONTENTFORMAT_END
171
     0
 94
        6
 95
        1
302
GRIDFORMAT
  1
GRIDFORMAT_BEGIN
 90
        0
 91
        1
 62
     0
 92
       -2
340
0
 93
        0
 40
0.045
309
GRIDFORMAT_END
 95
        2
302
GRIDFORMAT
  1
GRIDFORMAT_BEGIN
 90
        0
 91
        1
 62
     0
 92
       -2
340
0
 93
        0
 40
0.045
309
GRIDFORMAT_END
 95
        4
302
GRIDFORMAT
  1
GRIDFORMAT_BEGIN
 90
        0
 91
        1
 62
     0
 92
       -2
340
0
 93
        0
 40
0.045
309
GRIDFORMAT_END
 95
        8
302
GRIDFORMAT
  1
GRIDFORMAT_BEGIN
 90
        0
 91
        1
 62
     0
 92
       -2
340
0
 93
        0
 40
0.045
309
GRIDFORMAT_END
 95
       16
302
GRIDFORMAT
  1
GRIDFORMAT_BEGIN
 90
        0
 91
        1
 62
     0
 92
       -2
340
0
 93
        0
 40
0.045
309
GRIDFORMAT_END
 95
       32
302
GRIDFORMAT
  1
GRIDFORMAT_BEGIN
 90
        0
 91
        1
 62
     0
 92
       -2
340
0
 93
        0
 40
0.045
309
GRIDFORMAT_END
309
TABLEFORMAT_END
  1
CELLSTYLE_BEGIN
 90
        3
 91
        2
300
_DATA
309
CELLSTYLE_END
  0
ENDSEC
  0
SECTION
  2
THUMBNAILIMAGE
 90
    16364
310
28000000B40000005500000001000800000000000000000000000000000000000000000000000000FFFFFF000000FF0000FFFF0000FF0000FFFF0000FF000000FF00FF000000000080808000C0C0C0000000FF007F7FFF000000A5005252A50000007F003F3F7F0000004C0026264C000000260013132600003FFF007F9FFF
310
000029A5005267A500001F7F003F4F7F0000134C00262F4C000009260013172600007FFF007FBFFF000052A500527CA500003F7F003F5F7F0000264C0026394C0000132600131C260000BFFF007FDFFF00007CA5005291A500005F7F003F6F7F0000394C0026424C00001C26001321260000FFFF007FFFFF0000A5A50052A5
310
A500007F7F003F7F7F00004C4C00264C4C00002626001326260000FFBF007FFFDF0000A57C0052A59100007F5F003F7F6F00004C3900264C420000261C001326210000FF7F007FFFBF0000A5520052A57C00007F3F003F7F5F00004C2600264C39000026130013261C0000FF3F007FFF9F0000A5290052A56700007F1F003F
310
7F4F00004C1300264C2F00002609001326170000FF00007FFF7F0000A5000052A55200007F00003F7F3F00004C0000264C260000260000132613003FFF00009FFF7F0029A5000067A552001F7F00004F7F3F00134C00002F4C260009260000172613007FFF0000BFFF7F0052A500007CA552003F7F00005F7F3F00264C0000
310
394C2600132600001C261300BFFF0000DFFF7F007CA5000091A552005F7F00006F7F3F00394C0000424C26001C26000021261300FFFF0000FFFF7F00A5A50000A5A552007F7F00007F7F3F004C4C00004C4C26002626000026261300FFBF0000FFDF7F00A57C0000A59152007F5F00007F6F3F004C3900004C422600261C00
310
0026211300FF7F0000FFBF7F00A5520000A57C52007F3F00007F5F3F004C2600004C39260026130000261C1300FF3F0000FF9F7F00A5290000A56752007F1F00007F4F3F004C1300004C2F26002609000026171300FF000000FF7F7F00A5000000A55252007F0000007F3F3F004C0000004C2626002600000026131300FF00
310
3F00FF7F9F00A5002900A55267007F001F007F3F4F004C0013004C262F002600090026131700FF007F00FF7FBF00A5005200A5527C007F003F007F3F5F004C0026004C2639002600130026131C00FF00BF00FF7FDF00A5007C00A55291007F005F007F3F6F004C0039004C26420026001C0026132100FF00FF00FF7FFF00A5
310
00A500A552A5007F007F007F3F7F004C004C004C264C002600260026132600BF00FF00DF7FFF007C00A5009152A5005F007F006F3F7F0039004C0042264C001C002600211326007F00FF00BF7FFF005200A5007C52A5003F007F005F3F7F0026004C0039264C00130026001C1326003F00FF009F7FFF002900A5006752A500
310
1F007F004F3F7F0013004C002F264C000900260017132600000000002D2D2D005B5B5B0089898900B7B7B700B3B3B30000000000000000000000000000000000000000070000000000000000000000000000000000000000000000000000000000000000000000000000000000000000000000000000000000000000000000
310
00000000000000000000000000000000000000000000000000000000000000000000000000000000000000000000000000000000000000000000000000000000000000000000000000000000000000000000000000000000000000000000000000000000000000000000000000000000000000000000000007000000000000
310
00000000000000000000000000000000000000000000000000000000000000000000000000000000000000000000000000000000000000000000000000000000000000000000000000000000000000000000000000000000000000000000000000000000000000000000000000000000000000000000000000000000000000
310
00000000000000000000000000000000000000000000000000000000000000000000000000000000000000000000070000000000000000000000000000000000000000000000000000000000000000000000000000000000000000000000000000000000000000000000000000000000000000000000000000000000000000
310
00000000000000000000000000000000000000000000000000000000000000000000000000000000000000000000000000000000000000000000000000000000000000000000000000000000000000000000000000000000000000000000000000000007000000000000000000000000000000000000000000000000000000
310
00000000000000000000000000000000000000000000000000000000000000000000000000000000000000000000000000000000000000000000000000000000000000000000000000000000000000000000000000000000000000000000000000000000000000000000000000000000000000000000000000000000000000
310
00000000000000000000000000000000000000000000000000070000000000000000000000000000000000000000000000000000000000000000000000000000000000000000000000000000000000000000000000000000000000000000000000000000000000000000000000000000000000000000000000000000000000
310
00000000000000000000000000000000000000000000000000000000000000000000000000000000000000000000000000000000000000000000000000000000000000000000000000000000000007000000000000000000000000000000000000000000000000000000000000000000000000000000000000000000000000
310
00000000000000000000000000000000000000000000000000000000000000000000000000000000000000000000000000000000000000000000000000000000000000000000000000000000000000000000000000000000000000000000000000000000000000000000000000000000000000000000000000000000000000
310
00000000070000000000000000000000000000000000000000000000000000000000000000000000000000000000000000000000000000000000000000000000000000000000000000000000000000000000000000000000000000000000000000000000000000000000000000000000000000000000000000000000000000
310
00000000000000000000000000000000000000000000000000000000000000000000000000000000000000000000000000000000000000000007000000000000000000000000000000000000000000000000000000000000000000000000000000000000000000000000000000000000000000000000000000000000000000
310
00000000000000000000000000000000000000000000000000000000000000000000000000000000000000000000000000000000000000000000000000000000000000000000000000000000000000000000000000000000000000000000000000000000000000000000000000000700000000000000000000000000000000
310
00000000000000000000000000000000000000000000000000000000000000000000000000000000000000000000000000000000000000000000000000000000000000000000000000000000000000000000000000000000000000000000000000000000000000000000000000000000000000000000000000000000000000
310
00000000000000000000000000000000000000000000000000000000000000000000000007000000000000000000000000000000000000000000000000000000000000000000000000000000000000000000000000000000000000000000000000000000000000000000000000000000000000000000000000000000000000
310
00000000000000000000000000000000000000000000000000000000000000000000000000000000000000000000000000000000000000000000000000000000000000000000000000000000000000000000000000000000000700000000000000000000000000000000000000000000000000000000000000000000000000
310
00000000000000000000000000000000000000000000000000000000000000000000000000000000000000000000000000000000000000000000000000000000000000000000000000000000000000000000000000000000000007070000000000000000070700000000000000000000000000000000000000000000000000
310
00000000000000000000000000000007000000000000000000000000000000000000000000000000000000000000000000000000000000000000000000000000000000000000000000000000000000000000000000000000000000000000000000000000000000000000000000000000000000000000000000000000000000
310
00000000000000000000000007070707070707070707070707070707070707070700000000000000000000000000000000000000000000000000000000000000000000000700000000000000000000000000000000000000000000000000000000000000000000000000000000000000000000000000000000000000000000
310
00000000000000000000000000000000000000000000000000000000000000000000000000000000000000000000000000000000000000000000000000000000070707070707070707070707070707070707070707070700000000000000000000000000000000000000000000000000000000000000000000070000000000
310
00000000000000000000000000000000000000000000000000000000000000000000000000000000000000000000000000000000000000000000000000000000000000000000000000000000000000000000000000000000000000000000000000000000000000000000000000000000000000070707070707070707070707
310
07070707070707070707070707000000000000000000000000000000000000000000000000000000000000000000000700000000000000000000000000000000000000000000000000000000000000000000000000000000000000000000000000000000000000000000000000000000000000000000000000000000000000
310
00000000000000000000000000000000000000000000000000000000000000000000000000000000000707070707070707070707070707070707070707070707070700000000000000000000000000000000000000000000000000000000000000000000070000000000000000000000000000000000000000000000000000
310
00000000000000000000000000000000000000000000000000000000000000000000000000000000000000000000000000000000000000000000000000000000000000000000000000000000000000000000000000000000000000000000000007070707070707070707070707070707070707070707070000000000000000
310
00000000000000000000000000000000000000000000000000000700000000000000000000000000000000000000000000000000000000000000000000000000000000000000000000000000000000000000000000000000000000000000000000000000000000000000000000000000000000000000000000000000000000
310
00000000000000000000000000000000000000000000000000000000000000000000000007070707070707070700000000000000000000000000000000000000000000000000000000000000000000070000000000000000000000000000000000000000000000000000000000000000000000000000000000000000000000
310
00000000000000000000000000000000000000000000000000000000000000000000000000000000000000000000000000000000000000000000000000000000000000000000000000000000000000000000000000000000000000000000000000000000000000000000000000000000000000000000000000000000000000
310
00000000000700000000000000000000000000000000000000000000000000000000000000000000000000000000000000000000000000000000000000000000000000000000000000000000000000000000000000000000000000000000000000000000000000000000000000000000000000000000000000000000000000
310
00000000000000000000000000000000000000000000000000000000000000000000000000000000000000000000000000000000000000000000070000000000000000000000000000000000000000000000000000000000000000000000000000000000000000000000000000000000000000000000000000000000000000
310
00000000000000000000000000000000000000000000000000000000000000000000000000000000000000000000000000000000000000000000000000000000000000000000000000000000000000000000000000000000000000000000000000000000000000000000000000000007000000000000000000000000000000
310
00000000000000000000000000000000000000000000000000000000000000000000000000000000000000000000000000000000000000000000000000000000000000000000000000000000000000000000000000000000000000000000000000000000000000000000000000000000000000000000000000000000000000
310
00000000000000000000000000000000000000000000000000000000000000000000000000070000000000000000000000000000000000000000000000000000000000000000000000000000000000000000000000000000000000000000000000000000000000000000000000000000000000000000000000000000000000
310
00000000000000000000000000000000000000000000000000000000000000000000000000000000000000000000000000000000000000000000000000000000000000000000000000000000000000000000000000000000000007000000000000000000000000000000000000000000000000000000000000000000000000
310
00000000000000000000000000000000000000000000000000000000000000000000000000000000000000000000000000000000000000000000000000000000000000000000000000000000000000000000000000000000000000000000000000000000000000000000000000000000000000000000000000000000000000
310
00000000000000000000000000000000070000000000000000000000000000000000000000000000000000000000000000000000000000000000000000000000000000000000000000000000000000000000000000000000000000000000000000000000000000000000000000000000000000000000000000000000000000
310
00000000000000000000000000000000000000000000000000000000000000000000000000000000000000000000000000000000000000000000000000000000000000000007000000000000000000000000000000000000000000000000000000000000000000000000000000000000000000000000000000000000000000
310
00000000000000000000000000000000000000000000000000000000000000000000000000000000000000000000000000000000000000000000000000000000000000000000000007070707070707070707070707070000070000000000000000000000000000000000000000000000000000000000000000000700000000
310
00000000000000000000000000000000000000000000000000000000000000000000000000000000000000000000000000000000000000000000000000000000000000000000000000000000000000000000000000000000000000000000000000000000000000000000000000000000000000000000000000000000000707
310
07070707070707070707070707070000000000000000000000000000000000000000000000000000000000000000000007000000000000000000000000000000000000000000000000000000000000000000000000000000000000000000000000000000000000000000000000000000000000000000000000000000000000
310
00000000000000000000000000000000000000000000000000000000000000000000000000000000000000000000000000000000000000000000000000000000000000000000000000000000000000000000000000000000000000000000000000000000000700000000000000000000000000000000000000000000000000
310
00000000000000000000000000000000000000000000000000000000000000000000000000000000000000000000000000000000000000000000000000000000000000000000000000000000000000000000000000000000000000000000000000000000000000000000000000000000000000000000000000000000000000
310
00000000000000000000000000000000000000000000000000000007000000000000000000000000000000000000000000000000000000000000000000000000000000000000000000000000000000000000000000000000000000000000000000000000000000000000000000000000000000000000000000000000000000
310
00000000000000000000000000000000000000000000000000000000000000000000000000000000000000000000000000000000000000000000000000000000000000000000000000000000000000000700000000000000000000000000000000000000000000000000000000000000000000000000000000000000000000
310
00000000000000000000000000000000000000000000000000000000000000000000000000000000000000000000000000000000000000000000000000000000000000000000000000000000000000000000000000000000000000000000000000000000000000000000000000000000000000000000000000000000000000
310
00000000000007000000000000000000000000000000000000000000000000000000000000000000000000000000000000000000000000000000000000000000000000000000000000000000000000000000000000000000000000000000000000000000000000000000000000000000000000000000000000000000000000
310
00000000000000000000000000000000000000000000000000000000000000000000000000000000000000000000000000000000000000000000000700000000000000000000000000000000000000000000000000000000000000000000000000000000000000000000000000000000000000000000000000000000000000
310
00000000000000000000000000000000000000000000000000000000000000000000000000000000000000000000000000000000000000000000000000000000000000000000000000000000000000000000000000000000000000000000000000000000000000000000000000000000070000000000000000000000000000
310
00000000000000000000000000000000000000000000000000000000000000000000000000000000000000000000000000000000000000000000000000000000000000000000000000000000000000000000000000000000000000000000000000000000000000000000000000000000000000000000000000000000000000
310
00000000000000000000000000000000000000000000000000000000000000000000000000000700000000000000000000000000000000000000000000000000000000000000000000000000000000000000000000000000000000000000000000000000000000000000000000000000000000000000000000000000000000
310
00000000000000000000000000000000000000000000000000000000000000000000000000000000000000000000000000000000000000000000000000000000000000070707070700000000000000000000000000000000000000070000000000000000000000000000000000000000000000000000000000000000000000
310
00000000000000000000000000000000000000000000000000000000000000000000000000000000000000000000000000000000000000000000000000000000000000000000000000000000000000000000000000000000000000000000000000000000000000000007070707070707070707070707070707070007070000
310
00000000000000000000000000000000000700000000000000000000000000000000000000000000000000000000000000000000000000000000000000000000000000000000000000000000000000000000000000000000000000000000000000000000000000000000000000000000000000000000000000000000000000
310
00000000000000000000000000000000000000000000000000000000000000000000000000000000000000000000070707070700000000000000000000000000000000000000070000000000000000000000000000000000000000000000000000000000000000000000000000000000000000000000000000000000000000
310
00000000000000000000000000000000000000000000000000000000000000000000000000000000000000000000070000000000000000000000000000000000000000000000000000000000000000000000000000000000000000000000000000000000000000000000000000000000000000000000000000000007000000
310
00000000000000000000000000000000000000000000000000000000000000000000000000000000000000000000000000000000000000000000000000000000000000000000000007070000000000000000000000000000000000000000000000000707000000000000000000000000000000000000000000000000000000
310
00000000000000000000000000000000000000000000000000000000000000000000000000000000000000000000000000070000000000000000000000000000000000000000000000000000000000000000000000000000000000000000000000000000000000000000000000000000000000000000000000000000000707
310
00000000000000000000000000000000000000000000000007070000000000000000000000000000000000000000000000000000000000000000000000000000000000000000000000000000000000000000000000000000000000000000000000000000000007000000000000000000000000000000000000000000000000
310
00000000000000000000000000000000000000000000000000000000000000000000000000000000000000000000000000000007070000000000000000000000000000000000000000000000000707000000000000000000000000000000000000000000000000000000000000000000000000000000000000000000000000
310
00000000000000000000000000000000000000000000000000000000070000000000000000000000000000000000000000000000000707000000000000000000000000000000000000000000000000000000000000000000000000000000000000000000000000000707000000000000000000000000000000000000000000
310
00000000070000000000000000000000000000000000000000000000000000000000000000000000000000000000000000000000000000000000000000000000000000000000000000000000000000000007000000000000000000000000000000000000000000000000070700000000000000000000000000000000000000
310
00000000000000000000000000000000000000000000000000000000000007070707070707070707070707070707070707070707070707070707070707070707000000000000000000000000000000000000000000000000000000000000000000000000000000000000000000000000000000000000000000000000000000
310
00000000000000070000000000000000000000000000000000000000000000000707070707070700000000000007070700000000000000000000000000000000000000000000000000000000000000000000000707070707070707070707070707070707070707070707070707070707070707070700000000000000000000
310
00000000000000000000000000000000000000000000000000000000000000000000000000000000000000000000000000000000000000000000000007000000000000000000000000000000000000000000000000070707070707077979790707070707070000000000000000000000000000000000000000000000000000
310
00000000000000000007070000000000000000000000000000000000000000070000000007000000070707000000000000000000000000000000000000000000000000000000000000000000000000000000000000000000000000000000000000000000000000000000000000000000000700000000000000000000000000
310
00000000000000000000000707000000000000000000070000070700000000000000000000000000000000000000000000000000000000000000000000000007000000000000000000000000000000000000000007000000000700000007000000000000000000000000000000000000000000000000000000000000000000
310
00000000000000000000000000000000000000000000000000000000000000000000000000000007000000000000000000000000000000000000000000000000070700000000000000000007000007070000000000000000000000000000000000000000000000000000000000000000000000000707070707070707070707
310
07070707070707070707070000000000000000070000000000000000000000000000000000000000000000000000000000000000000000000000000000000000000000000000000000000000000000000000000000000000000000000700000000000000000000000000000000000000000000000007070000000000000000
310
00070000070700000000000000000000000000000000000000000000000000000000000000000000000007070000000000000000000000000000000000070707000000000000000007000000000000000000000000000000000000000000000000000000000000000000000000000000000000000000000000000000000000
310
00000000000000000000000000000000000007000000000000000000000000000000000000000000000000070700000000000000000707000007070000000000000000000000000000000000000000000000000000000000000000000000000700000000000000000000000000000000000000000700000000000000000700
310
00000000000000000000000000000000000000000000000000000000000000000000000000000000000000000000000000000000000000000000000000000000000000000000000700000000000000000000000000000000000000000000000007070000000000000007070700000707000000000000000000000000000000
310
00000000000000000000000000000000000000000000000000000000000000000000000000000000000000000000000000000007000000000000000000000000000000000000000000000000000000000000000000000000000000000000000000000000000000000000000000000000000000000000000000000000070000
310
00000000000000000000000000000000000000000000070700000000000000070707000007070000000000000000000000000000000000000000000000000000000000000000000000000000000000000000000000000000000000000000000000000000000000000700000000000000000000000000000000000000000000
310
00000000000000000000000000000000000000000000000000000000000000000000000000000000000000000000000000000700000000000000000000000000000000000000000000000007070000000000000000000700000707000000000000000000000000000000000000000000000000000000000000000000000007
310
07000000000000000000000000000000000000000000000000000000000007000000000000000000000000000000000000000000000000000000000000000000000000000000000000000000000000000000000000000000000000000000000000000000000000070000000000000000000000000000000000000000000000
310
00070700000000000000000007000007070707070707070707070707070707070707070707070707070707070000000000070707070700000000000000000000000000000000000000000000000000000000000700000000000000000000000000000000000000000000000000000000000000000000000000000000000000
310
00000707070707070000000000000000000000000000000000000000000700000000000000000000000000000000000000000000000007070000000000000000070707070707070707070707070707070707070707070707070707070707070707000000000007070707070000000000000000000000000000000000000000
310
00000000000000000007000000000000000000000000000000000000000000000000000000000000000000000000000707070707070707070707070707000000000000000000000000000000000000000000070000000000000000000000000000000000000000000000000707000000000000000000000000070000000000
310
00070700000000000000000000000000000000000000000000000000000000070700000000000000000000000000000000000000000000000000000000000700000000000000000000000000000000000000000000000000000000000000000000000000000000000000000007070707070700000000000000000000000000
310
00000000000000000700000000000000000000000000000000000000000000000007070000000000000000000000000700000000000007070000000000000000000000000000000000000000000000000000000007070000000000000000000000000000000000000000000000000000000000070000000000000000000000
310
00000000000000000000000000000000000000000000000000000000000000000000000000000000000000000000000000000000000000000000000000070000000000000000000000000000000000000000000000000707000000000000000000000000070000000000000707000000000000000000000000000000000000
310
00000000000000000000070700000000000000000000000000000000000000000000000000000000000700000000000000000000000000000000000000000000000000000000000000000000000000000000000000000000000000000000000000000000000000000000000000000000000007000000000000000000000000
310
00000000000000000000000007070000000000000000000000000700000000000007070000000000000000000000000000000000000000000000000000000007070000000000000000000000000000000000000000000000000000000000070000000000000000000000000000000000000000000000000000000000000000
310
00000000000000000000000000000000000000000000000000000000000000000000000000000000070000000000000000000000000000000000000000000000000707000000000000000000000000070707070707070707000000000000000000000000000000000000000000000000000000000707000000000000000000
310
00000000000000000000000000000000000000000700000000000000000000000000000000000000000000000000000000000000000000000000000000000000000000000000000000000000000000000000000000000000000000000007000000000000000000000000000000000000000000000000070700000000000000
310
00000000000707070707070707070000000000000000000000000000000000000000000000000000000007070000000000000000000000000000000000000000000000000000000000070707070000000000000000000000000000000000000000000000000000000000000000000000000000000000000000000000000000
310
00000000000000000000000000000000000000070000000000000000000000000000000000000000000000000707000000000000000000000000070707070700000707000000000000000000000000000000000000000000000000000000000707000000000000000000000000000000000000000000000000000000000007
310
07070700000000000000000000000000000000000000000000000000000000000000000000000000000000000000000000000000000000000000000000000000000000000000000007000000000000000000000000000000000000000000000000070700000000000000000000000007070707070000070700000000000000
310
00000000000000000000000000000000000000000007070000000000000000000000000000000000000000000000000000000000070707070000000000000000000000000000000000000000000000000000000000000000000000000000000000000000000000000000000000000000000000000000000000000000000700
310
00000000000000000000000000000000000000000000000707000000000000000000000000070000000000000707000000000000000000000000000000000000000000000000000000000707000000000000000000000000000000000000000000000000000000000007070707000000000000000000000000000000000000
310
00000000000000000000000000000000000000000000000000000000000000000000000000000000000000000000000000000007000000000000000000000000000000000000000000000000070700000000000000000000000007000000000000070700000000000000000000000000000000000000000000000000000000
310
07070000000000000000000000000000000000000000000000000000000000070707070000000000000000000000000000000000000000000000000000000000000000000000000000000000000000000000000000000000000000000000000000000000000000000700000000000000000000000000000000000000000000
310
00000707000000000000000000000000070000000000000707000000000000000000000000000000000000000000000000000000000707000000000000000000000000000000000000000000000000000000000007070707000000000000000000000000000000000000000000000000000000000000000000000000000000
310
00000000000000000000000000000000000000000000000000000000000007000000000000000000000000000000000000000000000000070700000000000000000000000007000000000000070700000000000000000000000000000000000000000000000000000000070700000000000000000000000000000000000000
310
00000000000000000000070707070000000000000000000000000000000000000000000000000000000000000000000000000000000000000000000000000000000000000000000000000000000000000000000700000000000000000000000000000000000707070707070707070707070707070707070707070707070707
310
07070707070707070707070707070707070707070707070707070707070707070707070707070707070707070707070707070707070707070707070707070707070707000000000000000000000000000000000000000000000000000000000000000000000000000000000000000000000000000000000000000000000000
310
00000000000000000007000000000000000000000000000000000007070707070707070707070707070707070707070707070707070707070707070707070707070707070707070707070707070707070707070707070707070707070707070707070707070707070707070707070707070707070707070700000000000000
310
00000000000000000000000000000000000000000000000000000000000000000000000000000000000000000000000000000000000000000000000000000700000000000000000000000000000000000707070707070707070707070707070707070707070707070707070707070707070707070707070707070707070707
310
07070707070707070707070707070707070707070707070707070707070707070707070707070707070707070707000000000000000000000000000000000000000000000000000000000000000000000000000000000000000000000000000000000000000000000000000000000000000000070000000000000000000000
310
00000000000707070707070707070707070707070707070707070707070707070707070707070707070707070707070707070707070707070707070707070707070707070707070707070707070707070707070707070707070707070707070707070700000000000000000000000000000000000000000000000000000000
310
00000000000000000000000000000000000000000000000000000000000000000000000000000000000700000000000000000000000000000000000000000000000000000000000000000707070707070000000000000000000000000000000000000000000000000000000000000000000000000000000000000000000000
310
00000000000000000000000000000000000000000000000000000000000000000000000000000000000000000000000000000000000000000000000000000000000000000000000000000000000000000000000000000000000000000000070000000000000000000000000000000000000000000000000000000000000007
310
07070707070700000000000000000000000000000000000000000000000000000000000000000000000000000000000000000000000000000000000000000000000000000000000000000000000000000000000000000000000000000000000000000000000000000000000000000000000000000000000000000000000000
310
00000000000000000000000000000000000000000700000000000000000000000000000000000000000000000000000000000000070707070707070707000000000000000000000000000000000000000000000000000000000000000000000000000000000000000000000000000000000000000000000000000000000000
310
00000000000000000000000000000000000000000000000000000000000000000000000000000000000000000000000000000000000000000000000000000000000000000000000000070000000000000000000000000000000000000000000000000000000000000007070707070707070700000000000000000000000000
310
00000000000000000000000000000000000000000000000000000000000000000000000000000000000000000000000000000000000000000000000000000000000000000000000000000000000000000000000000000000000000000000000000000000000000000000000000000000000000000000000000000000000007
310
00000000000000000000000000000000000000000000000000000000000000070707070707070000000000000000000000000000000000000000000000000000000000000000000000000000000000000000000000000000000000000000000000000000000000000000000000000000000000000000000000000000000000
310
00000000000000000000000000000000000000000000000000000000000000000000000000000000000000000000000000000000070000000000000000000000000000000000000000000000000000000000000707070707070707070700000000000000000000000000000000000000000000000000000000000000000000
310
00000000000000000000000000000000000000000000000000000000000000000000000000000000000000000000000000000000000000000000000000000000000007000000000000000000000000000000000000000000000000000000000000000000000000000007000000000000000000000000000000000000000000
310
00000000000000000007070707070707070707000000000000000000000000000000000000000000000000000000000000000000000000000000000000000000000000000000000000000000000000000000000000000000000000000000000000000000000000000000000000000000000000000000000707070000000000
310
00000000000000000000000000000000000000000000000000000707000000070000000000000000000000000000000000000000000000000000000000000707070707070707070700000000000000000000000000000000000000000000000000000000000000000000000000000000000000000000000000000000000000
310
00000000000000000000000000000000000000000000000000000000000000000000000000000000000000000000000007070707000000000000000000000000000000000000000000000000000000070707000007000000000000000000000000000000000000000000000000000000000000070707070707000707070000
310
00000000000000000000000000000000000000000000000000000000000000000000000000000000000000000000000000000000000000000000000000000000000000000000000000000000000000000000000000000000000000000000000000000000000000000007070707000000000000000000000000000000000000
310
00000000000007070700070000000000000000000000000000000000000000000000000000000000000707070707070700000000000000000000000000000000000000000000000000000000000000000000000000000000000000000000000000000000000000000000000000000000000000000000000000000000000000
310
00000000000000000000000000000000000000000000000000000000000000000000000707070707070707000000000000000000000000000000000007070707000000000000000000000000000000000000000000000000000000000000000000000707070000000000000000000000000000000000000000000000000000
310
00000000000000000000000000000000000000000000000000000000000000000000000000000000000000000000000000000000000000000000000000000000000000000000000000000000000000000000000000000000000000070707070707000000000000000000000000000000000707000700000000000000000000
310
00000000000000000000000000000000000000000000000000000000000000000000000000000000000000000000000000000000000000000000000000000000000000000000000000000000000000000000000000000000000000000000000000000000000000000000000000000000000000000000000000000000000000
310
00000000000000000000000000000000000000000707070000000000000000000000000000000007070707000000000000000000000000000000000000000000000000000000000000000000000000000000000000000000000000000000000000000000000000000000000000000000000000000000000000000000000000
310
00000000000000000000000000000000000000000000000000000000000000000000000000000000000000000000000000000000000000000000000000000000000000000000000000000000000000000000000000000000000000000707000700000000000000000000000000000000000000000000000000000000000000
310
00000000000000000000000000000000000000000000000000000000000000000000000000000000000000000000000000000000000000000000000000000000000000000000000000000000000000000000000000000000000000000000000000000000000000000000000000000000000000000000000000000000000000
310
00000000000000000000000000000000000000070707000000000000000000000000000000000000000000000000000000000000000000000000000000000000000000000000000000000000000000000000000000000000000000000000000000000000000000000000000000000000000000000000000000000000000000
310
00000000000000000000000000000000000000000000000000000000000000000000000000000000000000000000000000000000000000000000000000000000000000000000000000070700000000000000000000000000000000000000000000000000000000000000000000000000000000000000000000000000000000
310
000000000000000000000000000000000000000000000000000000000000000000000000000000000000000000000000000000000000000000000000000000000000000000000000000000000000000000000000000000000000000000000000000000000000000000000000
  0
ENDSEC
  0
EOF
